Рейд 2 / The Raid 2: Berandal (Гарет Эванс / Gareth Evans)[2014, боевик, криминал, BDRip, 1080]

 
Автор Сообщение

sergej644 ®

Пол:

Стаж: 4 года 11 месяцев

Сообщений: 6045

Откуда: Soviet Union



Награды: Нет

Торрент-статистика

Создавать темы 27-Июн-2015 23:22

[Цитировать]

Информация о фильме
Название: Рейд 2
Оригинальное название: The Raid 2: Berandal
Год выхода: 2014
Жанр: боевик, криминал
Режиссер: Гарет Эванс / Gareth Evans
В ролях: Ико Ювайс, Арифин Путра, Яян Рухьян, Джули Эстелль, Ока Антара, Алекс Аббад, Сесеп Ариф Рахман, Дони Аламсях, Тио Пакусодево, Рой Мартен
О фильме:
Из трех полицейских, выбравшихся из кровавого ада первой части, в живых остается только офицер Рама. Уволившись из спецназа, он пробует начать жизнь заново, но вскоре прошлое жестко напоминает о себе — преступники убивают его брата. Чтобы отомстить, он внедряется в мощный криминальный синдикат, где быстро поднимается до самых вершин бандитской иерархии. Врагов здесь еще больше, и каждый неверный шаг может оказаться последним. Здесь нет ни близких, ни друзей, ни любви, ни тоски, ни жалости!

Страна: США, Индонезия
Студия: Pt. Merantau Films, XYZ Films
Продолжительность: 02:30:28
Перевод: Профессиональный (полное дублирование)
Файл
Кодек: h264
Качество: BDRip 1080 от SuperMin
Видео: 1920х800 (2.40:1), 6924 Kbps, 23.976 fps
Звук: Русский (AC-3, 6ch, 640 kbps)
Субтитры: русские, английские

Лог

x264 [info]: frame I:1279 Avg QP:12.25 size:169577
x264 [info]: frame P:59302 Avg QP:15.05 size: 68156
x264 [info]: frame B:155875 Avg QP:16.56 size: 22804
x264 [info]: consecutive B-frames: 6.6% 6.0% 9.1% 25.7% 15.3% 25.4% 7.0% 4.4% 0.5%
[27.06.2015 17:39:27] encoded 216456 frames, 2.14 fps, 6923.55 kb/s

MI

Video
ID : 1
Format : AVC
Format/Info : Advanced Video Codec
Format profile : High@L4.1
Format settings, CABAC : Yes
Format settings, ReFrames : 5 frames
Codec ID : V_MPEG4/ISO/AVC
Duration : 2h 30mn
Bit rate : 6 924 Kbps
Width : 1 920 pixels
Height : 800 pixels
Display aspect ratio : 2.40:1
Frame rate mode : Constant
Frame rate : 23.976 fps
Color space : YUV
Chroma subsampling : 4:2:0
Bit depth : 8 bits
Scan type : Progressive
Bits/(Pixel*Frame) : 0.188
Stream size : 7.15 GiB (90%)
Writing library : x264 core 146 r2538 121396c
Encoding settings : cabac=1 / ref=5 / deblock=1:-1:-1 / analyse=0x3:0x113 / me=umh / subme=10 / psy=1 / psy_rd=1.00:0.00 / mixed_ref=1 / me_range=32 / chroma_me=1 / trellis=2 / 8x8dct=1 / cqm=0 / deadzone=21,11 / fast_pskip=0 / chroma_qp_offset=-2 / threads=4 / lookahead_threads=1 / sliced_threads=0 / nr=0 / decimate=1 / interlaced=0 / bluray_compat=0 / constrained_intra=0 / bframes=8 / b_pyramid=2 / b_adapt=2 / b_bias=0 / direct=1 / weightb=1 / open_gop=0 / weightp=2 / keyint=240 / keyint_min=22 / scenecut=40 / intra_refresh=0 / rc_lookahead=40 / rc=2pass / mbtree=0 / bitrate=6924 / ratetol=1.0 / qcomp=0.70 / qpmin=0 / qpmax=69 / qpstep=4 / cplxblur=20.0 / qblur=0.5 / vbv_maxrate=62500 / vbv_bufsize=78125 / nal_hrd=none / filler=0 / ip_ratio=1.40 / pb_ratio=1.30 / aq=1:0.80
Default : Yes
Forced : No
DURATION : 02:30:27.968000000
NUMBER_OF_FRAMES : 282124
NUMBER_OF_BYTES : 722237440
_STATISTICS_WRITING_APP : mkvmerge v7.8.0 ('River Man') 64bit built on Mar 27 2015 16:31:37
_STATISTICS_WRITING_DATE_UTC : 2015-06-27 14:52:33
_STATISTICS_TAGS : BPS DURATION NUMBER_OF_FRAMES NUMBER_OF_BYTES
Audio
ID : 2
Format : AC-3
Format/Info : Audio Coding 3
Mode extension : CM (complete main)
Format settings, Endianness : Big
Codec ID : A_AC3
Duration : 2h 30mn
Bit rate mode : Constant
Bit rate : 640 Kbps
Channel count : 6 channels
Channel positions : Front: L C R, Side: L R, LFE
Sampling rate : 48.0 KHz
Bit depth : 16 bits
Compression mode : Lossy
Delay relative to video : 27ms
Stream size : 689 MiB (8%)
Default : Yes
Forced : No

Скриншоты

[Профиль] [ЛС]
Показать сообщения:    

Текущее время: Сегодня 18:30

Часовой пояс: GMT



Вы не можете начинать темы
Вы не можете отвечать на сообщения
Вы не можете редактировать свои сообщения
Вы не можете удалять свои сообщения
Вы не можете голосовать в опросах
Вы не можете прикреплять файлы к сообщениям
Вы не можете скачивать файлы