Рейд 2 / The Raid 2: Berandal (2014) BDRip 1080p | 60 fps | D

 
Автор Сообщение

Zithylord ®

Пол:

Стаж: 5 лет 10 месяцев

Сообщений: 119



Награды: 2 (Подробнее)

Mega Seeder 2 (Количество: 1) Mega Seeder 1 (Количество: 1)
Торрент-статистика

Создавать темы 26-Авг-2014 13:57

[Цитировать]

-Название: Рейд 2
Оригинальное название: The Raid 2: Berandal
Год выпуска: 2014
Страна: Индонезия, США
Жанр: боевик, триллер, криминал
Продолжительность: 02:09:33
Перевод: Дубляж - [Лицензия]
Субтитры:нет-Режиссер: Гарет Эванс / Gareth Evans-В ролях: Ико Ювайс (Rama), Арифин Путра (Uco), Тио Пакусодево (Bangun), Ока Антара (Eka), Алекс Аббад (Bejo), Сесеп Ариф Рахман (The Assassin), Джули Эстелль (Alicia «Hammer Girl»), Вери Три Юлисман (Baseball Bat Man), Рюхэй Мацуда (Keichi), Кэнити Эндо (Hideaki Goto), Кадзуки Китамура (Ryuichi), Яян Рухьян (Prakoso)-Описание:
Из трех полицейских, выбравшихся из кровавого ада первой части, в живых остается только офицер Рама. Уволившись из спецназа, он пробует начать жизнь заново, но вскоре прошлое жестко напоминает о себе - преступники убивают его брата. Чтобы отомстить, он внедряется в мощный криминальный синдикат, где быстро поднимается до самых вершин бандитской иерархии. Врагов здесь еще больше, и каждый неверный шаг может оказаться последним. Здесь нет ни близких, ни друзей, ни любви, ни тоски, ни жалости!-Рейтинг

imdb.com: 8.20 (42 651)
MPAA: R - Лицам до 17 лет обязательно присутствие взрослого-Автор рипа:Tiberiumsun69
-Качество: BDRip 1080p
Формат: MKV
Видео кодек: AVC
Аудио кодек:AC3
Видео: AVC, 1920x1080, 14537 kbps, 60 fps
Аудио №1: русский/ 5.1/ 48 kHz/ 640 kbps/ AC3/ |Дубляж BD CEE|
Аудио №2: Indonesian/ 5.1/ 48 kHz/ 640 kbps/ AC3
Навигация по главам: есть-

MI

General
Unique ID : 247963133563966061908636093189469633706 (0xBA8BF6601349A9D790DD211F7B31FCAA)
Название : A:1080p 60fpsРейд 2 1080p 60fps.mkv
Формат : Matroska
Формат version : Version 4 / Version 2
Размер файла : 16.3 GiB
Длительность : 2h 24mn
Общий Битрейт : 16.1 Mbps
Encoded date : UTC 2014-08-08 11:35:03
Создано приложением : mkvmerge v6.9.1 ('Blue Panther') 64bit built on Apr 18 2014 18:23:38
Writing library : libebml v1.3.0 + libmatroska v1.4.1
Video
ID : 1
Формат : AVC
Формат/Info : Advanced Video Кодек
Формат profile : High@L4.1
Формат настройки, CABAC : Yes
Формат настройки, ReFrames : 4 frames
Кодек ID : V_MPEG4/ISO/AVC
Длительность : 2h 24mn
Битрейт : 14.5 Mbps
Width : 1 920 пикселей
Высота : 1 080 пикселей
Соотношение кадра : 16:9
Частота кадров : 60.000 fps
Цветопередача : YUV
Chroma subsampling : 4:2:0
Разрядность : 8 bits
Тип сканирования : Progressive
Bits/(Pixel*Frame) : 0.117
Размер потока : 14.7 GiB (90%)
Writing library : x264 core 130 r2273 b3065e6
Encoding настройки : cabac=1 / ref=4 / deblock=1:-1:-1 / analyse=0x3:0 / me=umh / subme=9 / psy=1 / psy_rd=1.00:0.10 / mixed_ref=1 / me_range=42 / chroma_me=0 / trellis=2 / 8x8dct=1 / cqm=0 / deadzone=21,11 / fast_pskip=0 / chroma_qp_offset=-3 / threads=12 / lookahead_threads=1 / sliced_threads=0 / nr=0 / decimate=0 / interlaced=0 / bluray_compat=0 / constrained_intra=0 / bframes=5 / b_pyramid=2 / b_adapt=2 / b_bias=0 / direct=1 / weightb=1 / open_gop=0 / weightp=2 / keyint=594 / keyint_min=59 / scenecut=40 / intra_refresh=0 / rc=crf / mbtree=0 / crf=14.0 / qcomp=0.60 / qpmin=0 / qpmax=69 / qpstep=4 / ip_ratio=1.40 / pb_ratio=1.30 / aq=0
Язык : English
Default : Yes
Forced : No
Audio #1
ID : 2
Формат : AC-3
Формат/Info : Audio Coding 3
Расширение режима : CM (complete main)
Кодек ID : A_AC3
Длительность : 2h 24mn
Битрейт mode : Constant
Битрейт : 640 Kbps
Каналы(s) : 6 каналов
Каналы positions : Front: L C R, Side: L R, LFE
Частота : 48.0 KHz
Разрядность : 16 bits
Режим сжатия : Lossy
Размер потока : 662 MiB (4%)
Title : Дубляж BD CEE
Язык : Russian
Default : Yes
Forced : No
Audio #2
ID : 3
Формат : AC-3
Формат/Info : Audio Coding 3
Расширение режима : CM (complete main)
Кодек ID : A_AC3
Длительность : 2h 24mn
Битрейт mode : Constant
Битрейт : 640 Kbps
Каналы(s) : 6 каналов
Каналы positions : Front: L C R, Side: L R, LFE
Частота : 48.0 KHz
Разрядность : 16 bits
Режим сжатия : Lossy
Размер потока : 662 MiB (4%)
Title : Original
Язык : Indonesian
Default : No
Forced : No
Menu
00:00:00.000 : en:Chapter 1
00:10:01.720 : en:Chapter 2
00:20:17.760 : en:Chapter 3
00:30:30.360 : en:Chapter 4
00:37:12.800 : en:Chapter 5
00:48:50.640 : en:Chapter 6
00:59:27.560 : en:Chapter 7
01:10:31.320 : en:Chapter 8
01:21:21.160 : en:Chapter 9
01:32:37.120 : en:Chapter 10
01:40:06.360 : en:Chapter 11
01:46:31.880 : en:Chapter 12
01:54:52.960 : en:Chapter 13
02:00:53.960 : en:Chapter 14
02:07:30.440 : en:Chapter 15
02:14:24.120 : en:Chapter 16
02:19:55.720 : en:Chapter 17

Скриншоты

Просьба к заливающим на другие сайты "Подписывайте пожалуйста автора рипа Tiberiumsun69"
[Профиль] [ЛС]
Показать сообщения:    

Текущее время: Сегодня 12:31

Часовой пояс: GMT



Вы не можете начинать темы
Вы не можете отвечать на сообщения
Вы не можете редактировать свои сообщения
Вы не можете удалять свои сообщения
Вы не можете голосовать в опросах
Вы не можете прикреплять файлы к сообщениям
Вы не можете скачивать файлы