Редкая порода / The Rare Breed (1966) DVDRip [H.264]

 
Автор Сообщение

sergej644 ®

Пол:

Стаж: 4 года 11 месяцев

Сообщений: 6041

Откуда: Soviet Union



Награды: Нет

Торрент-статистика

Создавать темы 18-Авг-2014 21:54

[Цитировать]

-Редкая порода / The Rare Breed (1966) DVDRip [H.264] - Год выпуска: 1966
Жанр: Драма, Мелодрама, Вестерн
Производство: США / Universal Pictures
Описание фильма:
Фильм рассказывает историю приобретения Америкой крупного рогатого скота из английского графства Херефорд (быки и коровы предназначались для повышения производительности сельского хозяйства в Техасе). В 1880-е годы англичанка Марта Прайс и ее дочь Хиллари приехали в Америку, продавать на аукционе своего быка-призера Херефордской породы.
После продажи быка диковатому шотландцу Боуэну, женщины нанимают вольного ковбоя по имени Бернетт — он должен помочь им доставить животное новому владельцу. Так начинаются приключения, всем участникам которых предстоят серьезные испытания: они сражаются с убийцами, ищут и ловят сбежавшего бычка и т. д.
Но когда они наконец-то добираются до ранчо Боуэна, еще более серьезные препятствия заставляют их собрать свою волю и храбрость в кулак, потому что они должны постараться выжить, а заодно и спасти от гибели быка-призера.
Режиссер: Эндрю В. МакЛаглен
Сценарий: Рик Хардман
Продюсер: Уильям Олленд
Актеры: Джеймс Стюарт, Морин О’Хара, Брайан Кит, Джульетт Миллс, Дон Гэллоуэй, Дэвид Брайан, Джек Илэм, Бен Джонсон, Гарри Кэри мл., Перри Лопес
Продолжительность: 01:36:48
Качество видео: DVDRip
Перевод: Двуголосый закадровый
Субтитры: Отсутствуют

Дата мировой премьеры: 2 февраля 1966
Видеокодек: MPEG-4 AVC/H.264
Битрейт видео: ~1835 Кбит/сек
Размер кадра: 720x304
Аудиокодек: AC3 2.0
Битрейт аудио: 192 Кбит/сек

MediaInfo:

Общее
Уникальный идентификатор : 253468771737748295852548610375465218954 (0xBEB04F4B7E262F31AFC37A688CE2B38A)
Полное имя : F:\Downloads\Редкая порода.mkv
Формат : Matroska
Версия формата : Version 4 / Version 2
Размер файла : 1,37 Гбайт
Продолжительность : 1 ч. 36 м.
Общий поток : 2029 Кбит/сек
Дата кодирования : UTC 2014-08-16 11:35:55
Программа кодирования : mkvmerge v7.0.0 ('Where We Going') 32bit built on Jun 9 2014 15:08:34
Библиотека кодирования : libebml v1.3.0 + libmatroska v1.4.1
DURATION : 01:36:48.000000000
NUMBER_OF_FRAMES : 181500
NUMBER_OF_BYTES : 139392000
_STATISTICS_WRITING_APP : mkvmerge v7.0.0 ('Where We Going') 32bit built on Jun 9 2014 15:08:34
_STATISTICS_WRITING_DATE_UTC : 2014-08-16 11:35:55
_STATISTICS_TAGS : BPS DURATION NUMBER_OF_FRAMES NUMBER_OF_BYTES
Видео
Идентификатор : 1
Формат : AVC
Формат/Информация : Advanced Video Codec
Профиль формата : [url=mailto:High@L3.1]High@L3.1[/url]
Параметр CABAC формата : Да
Параметр ReFrames формата : 8 кадров
Идентификатор кодека : V_MPEG4/ISO/AVC
Продолжительность : 1 ч. 36 м.
Битрейт : 1835 Кбит/сек
Ширина : 720 пикселей
Высота : 304 пикселя
Соотношение сторон : 2,35:1
Режим частоты кадров : Постоянный
Частота кадров : 23,976 кадра/сек
Цветовое пространство : YUV
Субдискретизация насыщенности : 4:2:0
Битовая глубина : 8 бит
Тип развёртки : Прогрессивная
Бит/(Пиксели*Кадры) : 0.350
Размер потока : 1,21 Гбайт (89%)
Заголовок : The Rare Breed
Библиотека кодирования : x264 core 125 r2200 999b753
Настройки программы : cabac=1 / ref=8 / deblock=1:-1:-1 / analyse=0x3:0x133 / me=umh / subme=9 / psy=1 / psy_rd=1.00:0.10 / mixed_ref=1 / me_range=16 / chroma_me=1 / trellis=2 / 8x8dct=1 / cqm=0 / deadzone=21,11 / fast_pskip=0 / chroma_qp_offset=-3 / threads=6 / lookahead_threads=1 / sliced_threads=0 / nr=0 / decimate=1 / interlaced=0 / bluray_compat=0 / constrained_intra=0 / bframes=3 / b_pyramid=2 / b_adapt=2 / b_bias=0 / direct=3 / weightb=1 / open_gop=0 / weightp=2 / keyint=250 / keyint_min=25 / scenecut=40 / intra_refresh=0 / rc_lookahead=60 / rc=2pass / mbtree=1 / bitrate=1835 / ratetol=1.0 / qcomp=0.60 / qpmin=0 / qpmax=69 / qpstep=4 / cplxblur=20.0 / qblur=0.5 / ip_ratio=1.40 / aq=1:1.00
Язык : English
Default : Да
Forced : Нет
Аудио
Идентификатор : 2
Формат : AC-3
Формат/Информация : Audio Coding 3
Расширение режима : CM (complete main)
Параметр Endianness формата : Big
Идентификатор кодека : A_AC3
Продолжительность : 1 ч. 36 м.
Вид битрейта : Постоянный
Битрейт : 192 Кбит/сек
Каналы : 2 канала
Расположение каналов : Front: L R
Частота : 48,0 КГц
Битовая глубина : 16 бит
Метод сжатия : С потерями
Размер потока : 133 Мбайт (9%)
Заголовок : Двуголосый закадровый
Язык : Russian
Default : Да
Forced : Нет
Скриншоты: Время раздачи: с 13:00 до 01:00 по Москве (выходные круглосуточно), до 10 скачавших
[Профиль] [ЛС]

Создавать темы 06-Авг-2015 23:06 (спустя 11 месяцев 19 дней)

Топик был перенесен из форума Фильмы до 2014 года в форум Фильмы до 2012 года
sergej644
 
Показать сообщения:    

Текущее время: Сегодня 06:03

Часовой пояс: GMT



Вы не можете начинать темы
Вы не можете отвечать на сообщения
Вы не можете редактировать свои сообщения
Вы не можете удалять свои сообщения
Вы не можете голосовать в опросах
Вы не можете прикреплять файлы к сообщениям
Вы не можете скачивать файлы