Регулярная армия / Standing Army (Томас Фаци / Thomas Fazi, Энрико Паренти / Enrico Parenti) [2010, Документальный, военный, HDTVRip 720p]

 
Автор Сообщение

TorrentFilm ®

Пол:

Стаж: 1 год 11 месяцев

Сообщений: 7741



Награды: Нет

Торрент-статистика

Создавать темы 17-Апр-2015 00:03

[Цитировать]

Регулярная армия / Standing Army
Год выпуска: 2010
Страна: Италия
Студия: Effendemfilm, Takae Films
Жанр: Документальный, военный
Продолжительность: 00:53:00
Перевод: Профессиональный (многоголосый закадровый)
Доп. инфо о переводе: Студия "Кравец-рекордс" по заказу компании Amedia
Режиссер: Томас Фаци / Thomas Fazi, Энрико Паренти / Enrico Parenti
Описание: Фильм о военных базах США. Больше 100 стран приняли 250'000 американских солдат. Как это произошло? И зачем США самая большая регулярная армия в мире?
Кинопоиск IMDb
Доп. информация: Исходник, 1080p личная запись со спутника, канал Amedia Premium HD
Сэмпл Скачать
Тип релиза: HDTVRip 720p
Контейнер: MKV
Видео: MPEG-4 AVC, ~ 4350 Кбит/с, 1280x720, 25 кадр/с, 16:9
Аудио: Русский, AC3, 6 ch, 384 Кбит/с
Аудио 2: Английский, MP2, 2 ch, 192 Кбит/с

MediaInfo

GeneralUnique ID : 179409352432292227747928255707515286738 (0x86F8FC02A33D82B290B7FB68D7D974D2)Complete name : M:\Торренты\Документальные\Регулярная армия_720p.mkvFormat : MatroskaFormat version : Version 4 / Version 2File size : 1.82 GiBDuration : 53mn 0sOverall bit rate : 4 926 KbpsEncoded date : UTC 2015-04-08 19:31:09Writing application : mkvmerge v6.6.0 ('The Edge Of The In Between') built on Dec 1 2013 17:55:00Writing library : libebml v1.3.0 + libmatroska v1.4.1
VideoID : 1Format : AVCFormat/Info : Advanced Video CodecFormat profile : High@L4.1Format settings, CABAC : YesFormat settings, ReFrames : 9 framesCodec ID : V_MPEG4/ISO/AVCDuration : 53mn 0sBit rate : 4 350 KbpsWidth : 1 280 pixelsHeight : 720 pixelsDisplay aspect ratio : 16:9Frame rate mode : ConstantFrame rate : 25.000 fpsColor space : YUVChroma subsampling : 4:2:0Bit depth : 8 bitsScan type : ProgressiveBits/(Pixel*Frame) : 0.189Stream size : 1.57 GiB (86%)Writing library : x264 core 146 r2538 121396cEncoding settings : cabac=1 / ref=9 / deblock=1:-3:-3 / analyse=0x3:0x133 / me=umh / subme=9 / psy=1 / psy_rd=1.00:0.10 / mixed_ref=1 / me_range=32 / chroma_me=1 / trellis=2 / 8x8dct=1 / cqm=0 / deadzone=21,11 / fast_pskip=1 / chroma_qp_offset=-3 / threads=6 / lookahead_threads=1 / sliced_threads=0 / nr=0 / decimate=0 / interlaced=0 / bluray_compat=0 / constrained_intra=0 / bframes=12 / b_pyramid=2 / b_adapt=2 / b_bias=0 / direct=3 / weightb=1 / open_gop=0 / weightp=2 / keyint=250 / keyint_min=23 / scenecut=40 / intra_refresh=0 / rc=2pass / mbtree=0 / bitrate=4350 / ratetol=1.0 / qcomp=0.60 / qpmin=0 / qpmax=69 / qpstep=4 / cplxblur=20.0 / qblur=0.5 / ip_ratio=1.40 / pb_ratio=1.30 / aq=1:1.00Language : EnglishDefault : YesForced : No
Audio #1ID : 2Format : AC-3Format/Info : Audio Coding 3Mode extension : CM (complete main)Format settings, Endianness : BigCodec ID : A_AC3Duration : 53mn 0sBit rate mode : ConstantBit rate : 384 KbpsChannel(s) : 6 channelsChannel positions : Front: L C R, Side: L R, LFESampling rate : 48.0 KHzBit depth : 16 bitsCompression mode : LossyStream size : 146 MiB (8%)Language : RussianDefault : YesForced : No
Audio #2ID : 3Format : MPEG AudioFormat version : Version 1Format profile : Layer 2Codec ID : A_MPEG/L2Codec ID/Hint : MP2Duration : 53mn 0sBit rate mode : ConstantBit rate : 192 KbpsChannel(s) : 2 channelsSampling rate : 48.0 KHzCompression mode : LossyStream size : 72.8 MiB (4%)Language : EnglishDefault : NoForced : No
[Профиль] [ЛС]
Показать сообщения:    

Текущее время: Сегодня 20:10

Часовой пояс: GMT



Вы не можете начинать темы
Вы не можете отвечать на сообщения
Вы не можете редактировать свои сообщения
Вы не можете удалять свои сообщения
Вы не можете голосовать в опросах
Вы не можете прикреплять файлы к сообщениям
Вы не можете скачивать файлы