Регулярная Армия / Standing Army (Томас Фази / Thomas Fazi, Энрико Паренти / Enrico Parenti) [2010, Документальный, HDTV 720p] MVO (Кравец-Рекордс)

 
Автор Сообщение

TorrentFilm ®

Пол:

Стаж: 2 года

Сообщений: 7741



Награды: Нет

Торрент-статистика

Создавать темы 12-Апр-2015 00:04

[Цитировать]

Регулярная Армия / Standing Army- Год выпуска: 2010
Страна: Италия
Студия: Effendemfilm
Жанр: Документальный
Продолжительность: 0:52:54
Перевод: Многоголосый закадровый | студия "Кравец-Рекордс" по заказу "AMEDiA TV"
Режиссеры: Томас Фази / Thomas Fazi, Энрико Паренти / Enrico Parenti-Описание: Документальный фильм о военных базах США, рассредоточенных по всему миру. Где и как служат солдаты самой большой в истории регулярной армии? Сегодня в мире насчитывается около 770 американских военных баз, расположенных в сотне с лишним стран на разных континентах. Вдали от родины служат примерно 250000 военнослужащих регулярной армии США (не считая 1000000-го контингента внутри страны). Фильм рассказывает о жизни и быте американских военных в Америке, Азии и Европе.- -Автор рипа: lrn
Автор записи: Alexin29
Сэмпл: sendfile-Тип релиза: HDTV 720p
Контейнер: MKV
Видео: 1280x720 (16:9), 25,000 fps, H264, ~4000 kbps avg, ~0.174 bit/pixel
Аудио#1: 48 kHz, AC3 Dolby Digital, 3/2 (L,C,R,l,r) + LFE ch, ~384.00 kbps avg | студия "Кравец-Рекордс"
Аудио#2: 48 kHz, AC3 Dolby Digital, 2/0 (L,R) ch, ~192.00 kbps avg | Оригинал-

MediaInfo

GeneralUnique ID : 179543708168507749420732118906500731263 (0x8712DC4270D4475CBCAC7DC45082D17F)Complete name : E:\uTorrent.Temp\Temp\Standing.Army.2010.HDTV.720p.x264-RUS-ENG-lrn.mkvFormat : MatroskaFormat version : Version 4 / Version 2File size : 1.69 GiBDuration : 52mn 54sOverall bit rate : 4 577 KbpsMovie name : Standing.Army.2010.HDTV.720p.x264-lrnEncoded date : UTC 2010-02-22 21:41:31Writing application : mkvmerge v5.9.0 ('On The Loose') built on Dec 9 2012 15:37:01Writing library : libebml v1.3.0 + libmatroska v1.4.0DURATION : 00:52:54.680000000NUMBER_OF_FRAMES : 79367NUMBER_OF_BYTES : 1587000542_STATISTICS_WRITING_APP : mkvmerge v7.7.0 ('Six Voices') 32bit built on Feb 28 2015 23:23:00_STATISTICS_WRITING_DATE_UT : 2015-04-09 20:15:28_STATISTICS_TAGS : BPS DURATION NUMBER_OF_FRAMES NUMBER_OF_BYTES
VideoID : 1Format : AVCFormat/Info : Advanced Video CodecFormat profile : High@L4.1Format settings, CABAC : YesFormat settings, ReFrames : 8 framesCodec ID : V_MPEG4/ISO/AVCDuration : 52mn 54sBit rate : 4 000 KbpsWidth : 1 280 pixelsHeight : 720 pixelsDisplay aspect ratio : 16:9Frame rate mode : ConstantFrame rate : 25.000 fpsColor space : YUVChroma subsampling : 4:2:0Bit depth : 8 bitsScan type : ProgressiveBits/(Pixel*Frame) : 0.174Stream size : 1.45 GiB (85%)Writing library : x264 core 146 r2538 121396cEncoding settings : cabac=1 / ref=8 / deblock=1:-3:-3 / analyse=0x3:0x133 / me=umh / subme=9 / psy=1 / psy_rd=1.00:0.00 / mixed_ref=1 / me_range=32 / chroma_me=1 / trellis=2 / 8x8dct=1 / cqm=0 / deadzone=21,11 / fast_pskip=1 / chroma_qp_offset=-2 / threads=12 / lookahead_threads=2 / sliced_threads=0 / nr=0 / decimate=1 / interlaced=0 / bluray_compat=0 / constrained_intra=0 / bframes=8 / b_pyramid=2 / b_adapt=2 / b_bias=0 / direct=3 / weightb=1 / open_gop=0 / weightp=2 / keyint=250 / keyint_min=25 / scenecut=40 / intra_refresh=0 / rc_lookahead=50 / rc=2pass / mbtree=1 / bitrate=4000 / ratetol=1.0 / qcomp=0.60 / qpmin=0 / qpmax=69 / qpstep=4 / cplxblur=20.0 / qblur=0.5 / vbv_maxrate=62500 / vbv_bufsize=78125 / nal_hrd=none / filler=0 / ip_ratio=1.40 / aq=1:1.00Default : YesForced : No
Audio #1ID : 2Format : AC-3Format/Info : Audio Coding 3Mode extension : CM (complete main)Format settings, Endianness : BigCodec ID : A_AC3Duration : 52mn 54sBit rate mode : ConstantBit rate : 384 KbpsChannel(s) : 6 channelsChannel positions : Front: L C R, Side: L R, LFESampling rate : 48.0 KHzBit depth : 16 bitsCompression mode : LossyStream size : 145 MiB (8%)Language : RussianDefault : YesForced : Yes
Audio #2ID : 3Format : AC-3Format/Info : Audio Coding 3Mode extension : CM (complete main)Format settings, Endianness : BigCodec ID : A_AC3Duration : 52mn 54sBit rate mode : ConstantBit rate : 192 KbpsChannel(s) : 2 channelsChannel positions : Front: L RSampling rate : 48.0 KHzBit depth : 16 bitsCompression mode : LossyStream size : 72.7 MiB (4%)Language : EnglishDefault : NoForced : No

x264 log

raw [info]: 1280x720p 1:1 @ 25/1 fps (cfr)x264 [info]: using SAR=1/1x264 [info]: using cpu capabilities: MMX2 SSE2Fast SSSE3 SSE4.2 AVXx264 [info]: profile High, level 4.1x264 [info]: frame I:470 Avg QP:15.36 size: 77937x264 [info]: frame P:20128 Avg QP:18.98 size: 35512x264 [info]: frame B:58769 Avg QP:20.60 size: 14218x264 [info]: consecutive B-frames: 3.4% 4.9% 11.0% 33.2% 17.5% 20.4% 4.4% 3.3% 1.9%x264 [info]: mb I I16..4: 11.8% 78.0% 10.2%x264 [info]: mb P I16..4: 3.3% 19.6% 1.5% P16..4: 38.5% 17.8% 8.6% 0.2% 0.0% skip:10.7%x264 [info]: mb B I16..4: 0.5% 2.5% 0.2% B16..8: 34.2% 10.7% 2.2% direct:12.1% skip:37.6% L0:44.0% L1:44.8% BI:11.2%x264 [info]: 8x8 transform intra:79.7% inter:72.8%x264 [info]: direct mvs spatial:98.3% temporal:1.7%x264 [info]: coded y,uvDC,uvAC intra: 73.2% 70.4% 33.2% inter: 33.9% 28.4% 1.5%x264 [info]: i16 v,h,dc,p: 27% 32% 7% 35%x264 [info]: i8 v,h,dc,ddl,ddr,vr,hd,vl,hu: 12% 14% 7% 7% 11% 11% 13% 10% 14%x264 [info]: i4 v,h,dc,ddl,ddr,vr,hd,vl,hu: 13% 15% 4% 7% 13% 13% 14% 10% 12%x264 [info]: i8c dc,h,v,p: 39% 30% 16% 15%x264 [info]: Weighted P-Frames: Y:6.1% UV:2.5%x264 [info]: ref P L0: 44.0% 11.6% 18.8% 7.1% 6.3% 4.4% 4.4% 2.9% 0.5% 0.0%x264 [info]: ref B L0: 77.9% 10.8% 4.9% 2.6% 2.0% 1.2% 0.7%x264 [info]: ref B L1: 94.8% 5.2%x264 [info]: kb/s:3999.14encoded 79367 frames, 13.47 fps, 3999.14 kb/s

Скриншоты

-
[Профиль] [ЛС]
Показать сообщения:    

Текущее время: Сегодня 16:37

Часовой пояс: GMT



Вы не можете начинать темы
Вы не можете отвечать на сообщения
Вы не можете редактировать свои сообщения
Вы не можете удалять свои сообщения
Вы не можете голосовать в опросах
Вы не можете прикреплять файлы к сообщениям
Вы не можете скачивать файлы