Регион 13 (2015) WEBRip

 
Автор Сообщение

BOSS ®

Пол:

Стаж: 2 года 1 месяц

Сообщений: 3732

Откуда: ODESSA



Награды: 20 (Подробнее)

Mega Seeder 3 (Количество: 1) Top Keeper 1 (Количество: 1) Mega Seeder 2 (Количество: 1)
Торрент-статистика

Создавать темы 11-Апр-2016 15:57

[Цитировать]

Информация о фильме
Название: Регион 13
Год выхода: 2015
Жанр: боевик, криминал
Режиссер: Омар Сункар
В ролях: Омар Сункар, Мейрамхан Суннатиллаев, Гани Нуржигитов, Евгения Гуренкова, Арман Ельденбаев, Тахир Ишметов, Мансур Тулешев
О фильме: Известный в Южном Казахстане авторитет Багдат по кличке «Багда» получает от своего давнего друга информацию о готовившихся массовых беспорядках и насилию в регионе. Он, конечно же, не может остаться в стороне и пытается всеми способами предотвратить возможные события. Но он даже не подозревает, что за всем этим уже следят сотрудники спецслужб. Дальнейший ход событий заставляет Багду принять решения, от которых зависят судьбы многих и многих людей.
Выпущено: Казахстан / Tengri Studio, Orda Cinema Group
Продолжительность: 01:33:24
Перевод: Не требуется (русский)
Файл
Качество: WEBRip
Формат: AVI
Видео: 640x352 (1.82:1), 23.976 fps, XviD build 64 ~974 kbps avg, 0.18 bit/pixel
Звук: 48 kHz, MPEG Layer 3, 2 ch, ~128.00 kbps avg
Субтитры: нет

Скриншоты

Mediainfo

Общее
Полное имя : D:Регион 13 (2015) HDRip 745 mb.avi
Формат : AVI
Формат/Информация : Audio Video Interleave
Размер файла : 746 Мбайт
Продолжительность : 1 ч. 33 м.
Общий поток : 1116 Кбит/сек
Программа кодирования : Lavf54.63.104
Видео
Идентификатор : 0
Формат : xvid
Идентификатор кодека : xvid
Продолжительность : 1 ч. 33 м.
Битрейт : 975 Кбит/сек
Ширина : 640 пикселей
Высота : 352 пикселя
Соотношение сторон : 16:9
Частота кадров : 23,976 кадра/сек
Бит/(Пиксели*Кадры) : 0.181
Размер потока : 652 Мбайт (87%)
Аудио
Идентификатор : 1
Формат : MPEG Audio
Версия формата : Version 1
Профиль формата : Layer 3
Режим : Joint stereo
Расширение режима : MS Stereo
Идентификатор кодека : 55
Идентификатор кодека/Подсказка : MP3
Продолжительность : 1 ч. 33 м.
Вид битрейта : Постоянный
Битрейт : 128 Кбит/сек
Каналы : 2 канала
Частота : 48,0 КГц
Метод сжатия : С потерями
Размер потока : 85,5 Мбайт (11%)
Выравнивание : Соединение по промежуткам
Продолжительность промежутка : 24 мс. (0,58 видеокадр)
Библиотека кодирования : LAMEЄѕяююїпяяячЅЬэ
[Профиль] [ЛС]
Показать сообщения:    

Текущее время: Сегодня 08:32

Часовой пояс: GMT



Вы не можете начинать темы
Вы не можете отвечать на сообщения
Вы не можете редактировать свои сообщения
Вы не можете удалять свои сообщения
Вы не можете голосовать в опросах
Вы не можете прикреплять файлы к сообщениям
Вы не можете скачивать файлы