Регата / La regate (Бернар Бельфруа / Bernard Bellefroid) [2009, Бельгия, Люксембург, Франция, драма, DVB] Original (Fra) + Sub (rus)

 
Автор Сообщение

TorrentFilm ®

Пол:

Стаж: 1 год 11 месяцев

Сообщений: 7741



Награды: Нет

Торрент-статистика

Создавать темы 20-Апр-2015 00:04

[Цитировать]

Регата
La régate- Страна: Бельгия, Люксембург, Франция
Жанр: драма
Год выпуска: 2009
Продолжительность: 01:30:56
Перевод: Субтитры (русский перевод И.Рыбкиной, Éclair Group/TELETOTA)
Cубтитры: русские, английские, французские, немецкие, нидерландские, румынские
Оригинальная аудиодорожка: французский
Режиссер: Бернар Бельфруа / Bernard BellefroidВ ролях: Жоффре Вербрюгген / Joffrey Verbruggen (Alexandre), Тьерри Анкисс / Thierry Hancisse (Thierry), Серхи Лопес / Sergi López (Sergi), Пенелопа Левек / Pénélope Leveque (Murielle), Давид Мюржиа / David Murgia (Pablo), Эрве Сонье / Hervé Sogne (Franco), Стефани Бланшуд / Stéphanie Blanchoud (Laetitia)
Описание: 15-летний Алекс живет вдвоем со своим отцом, от которого терпит бесконечное физическое насилие. Единственной целью парня является победа на Бельгийском чемпионате по гребле. Его тренер Серж и Мюриэль, девушка в которую он влюблен, помогут парню вновь открыть для себя утерянные человеческие ценности…
Доп. информация: Hot Bird (13.0°E) TV5MONDE Europe DVB-S
Награды: премия Magritte Awards, Belgium 2011 самому многообещающему актеру (Joffrey Verbruggen) + 3 номинации (лучший актер - Thierry Hancisse, самая многообещающая актриса - Stéphanie Blanchoud, лучший оператор); 2 награды Festival de Namur 2009 (приз зрительских симпатий, приз молодежного жюри); приз взрослого жюри Festival les Enfants du Cinéma (Ardennes) 2011; номинация на лучший бельгийский фильм Rencontres du Cinéma Européen de Vannes 2011.

Качество видео: DVB
Формат видео: DVD Video
Видео: MPEG Video 2, 720x576@1024x576 (16:9), 25 fps, ~3197 kbps avg, 0.308 bit/pixel
Аудио: Французский (MPEG Audio 2, 2 ch, 48 kHz, ~192.00 kbps avg)
Формат субтитров: prerendered (IDX+SUB)

DVDInfo, MediaInfo

Title: [apreder]La_regate(2009)DVBSize: 2.20 Gb ( 2 303 026,00 KBytes ) - DVD-5Enabled regions: 1, 2, 3, 4, 5, 6, 7, 8
VTS_01 : Play Length: 01:30:56 Video: PAL 16:9 (720x576) VBR, Auto Letterboxed Audio: Francais (MPEG1, 2 ch) Subtitles: Russian English Francais Deutsch Nederlands Romanian
ОбщееПолное имя : E:\My Torrents 2\[apreder]La_regate(2009)DVB\VIDEO_TS\VTS_01_1.VOBФормат : MPEG-PSРазмер файла : 1024 МбайтПродолжительность : 41 м.Режим общего битрейта : ПеременныйОбщий поток : 3458 Кбит/сек
ВидеоИдентификатор : 224 (0xE0)Формат : MPEG VideoВерсия формата : Version 2Профиль формата : Main@MainПараметр BVOP формата : ДаПараметр матрицы формата : ВыборочнаяПараметр GOP формата : M=4, N=12Format_Settings_PictureStructure : FrameПродолжительность : 41 м.Вид битрейта : ПеременныйБитрейт : 3197 Кбит/секШирина : 720 пикселейВысота : 576 пикселейСоотношение сторон : 16:9Частота кадров : 25,000 кадров/секСтандарт вещания : PALЦветовое пространство : YUVСубдискретизация насыщенности : 4:2:0Битовая глубина : 8 битТип развёртки : ЧересстрочнаяПорядок развёртки : Верхнее поле первоеМетод сжатия : С потерямиБит/(Пиксели*Кадры) : 0.308Временной код первого кадра : 00:00:00:00Оригинал временного кода : Group of pictures headerРазмер потока : 947 Мбайт (92%)
АудиоИдентификатор : 192 (0xC0)Формат : MPEG AudioВерсия формата : Version 1Профиль формата : Layer 2Продолжительность : 41 м.Вид битрейта : ПостоянныйБитрейт : 192 Кбит/секКаналы : 2 каналаЧастота : 48,0 КГцМетод сжатия : С потерямиРазмер потока : 56,9 Мбайт (6%)
Текст #1Идентификатор : 189 (0xBD)-32 (0x20)Формат : RLEФормат/Информация : Run-length encodingРежим смешивания : DVD-Video
Текст #2Идентификатор : 189 (0xBD)-33 (0x21)Формат : RLEФормат/Информация : Run-length encodingРежим смешивания : DVD-Video
Текст #3Идентификатор : 189 (0xBD)-34 (0x22)Формат : RLEФормат/Информация : Run-length encodingРежим смешивания : DVD-Video
Текст #4Идентификатор : 189 (0xBD)-35 (0x23)Формат : RLEФормат/Информация : Run-length encodingРежим смешивания : DVD-Video
Текст #5Идентификатор : 189 (0xBD)-36 (0x24)Формат : RLEФормат/Информация : Run-length encodingРежим смешивания : DVD-Video
Текст #6Идентификатор : 189 (0xBD)-37 (0x25)Формат : RLEФормат/Информация : Run-length encodingРежим смешивания : DVD-Video

Скриншот c названием фильма

Скриншоты


Резервные скриншоты


-[2'223]
[Профиль] [ЛС]

Создавать темы 06-Авг-2015 22:37 (спустя 3 месяца 16 дней)

Топик был перенесен из форума Фильмы до 2014 года в форум Фильмы до 2012 года
sergej644
 

Создавать темы 12-Июн-2016 08:49 (спустя 1 год 1 месяц)

Топик был перенесен из форума Фильмы 2011 года в форум Фильмы 2009 года
Russian Mafia
 
Показать сообщения:    

Текущее время: Сегодня 20:03

Часовой пояс: GMT



Вы не можете начинать темы
Вы не можете отвечать на сообщения
Вы не можете редактировать свои сообщения
Вы не можете удалять свои сообщения
Вы не можете голосовать в опросах
Вы не можете прикреплять файлы к сообщениям
Вы не можете скачивать файлы