Регата на Горьковском водохранилище (RTGHD) [2013, Документальный, HDTV 1080i]

 
Автор Сообщение

TorrentFilm ®

Пол:

Стаж: 2 года

Сообщений: 7741



Награды: Нет

Торрент-статистика

Создавать темы 27-Янв-2015 00:00

[Цитировать]

Регата на Горьковском водохранилище
Год выпуска: 2013
Страна: Россия
Жанр: Документальный
Продолжительность: 00:23:58
Перевод: Не требуется
Описание: В начале августа ежегодно Горьковское водохранилище наполняется разноцветными парусами. Сюда приходят суда на один из этапов Кубка России по парусному спорту среди крейсерских яхт. Эти соревнования продолжают традиции чемпионатов Советского Союза, которые проводились с 1936 года. Регата - увлекательное, азартное, напряженное состязание. Невероятной красоты зрелище, за которым интересно наблюдать и вблизи, и издалека.
Доп. информация: IPTV Remux (запись потока без перекодирования).
Тип релиза: HDTV 1080i
Контейнер: MKV
Видео: AVC H.264, 1920x1080i (16:9), 25 fps, 11.5 Mbps, 0.222 bits/pixel
Аудио: MPEG Audio, 2 channels, 192 kbps, 48KHz

MediaInfo

GeneralID : 1 (0x1)Complete name : Регата на Горьковском водохранилище.tsFormat : MPEG-TSFile size : 2.06 GiBDuration : 23mn 58sOverall bit rate mode : VariableOverall bit rate : 12.3 Mbps
VideoID : 601 (0x259)Menu ID : 1 (0x1)Format : AVCFormat/Info : Advanced Video CodecFormat profile : Main@L4.0Format settings, CABAC : YesFormat settings, ReFrames : 3 framesFormat settings, GOP : M=4, N=32Codec ID : 27Duration : 23mn 58sBit rate : 11.5 MbpsWidth : 1 920 pixelsHeight : 1 080 pixelsDisplay aspect ratio : 16:9Frame rate : 25.000 fpsStandard : ComponentColor space : YUVChroma subsampling : 4:2:0Bit depth : 8 bitsScan type : InterlacedScan order : Top Field FirstBits/(Pixel*Frame) : 0.222Stream size : 1.93 GiB (93%)Color primaries : BT.709Transfer characteristics : BT.709Matrix coefficients : BT.709
AudioID : 602 (0x25A)Menu ID : 1 (0x1)Format : MPEG AudioFormat version : Version 1Format profile : Layer 2Codec ID : 3Duration : 23mn 58sBit rate mode : ConstantBit rate : 192 KbpsChannel(s) : 2 channelsSampling rate : 48.0 KHzCompression mode : LossyStream size : 32.9 MiB (2%)Language : Russian

Скриншоты

[Профиль] [ЛС]
Показать сообщения:    

Текущее время: Сегодня 00:19

Часовой пояс: GMT



Вы не можете начинать темы
Вы не можете отвечать на сообщения
Вы не можете редактировать свои сообщения
Вы не можете удалять свои сообщения
Вы не можете голосовать в опросах
Вы не можете прикреплять файлы к сообщениям
Вы не можете скачивать файлы