Ребята с улицы / Boyz n the Hood (1991) BDRip 720p | P, A

 
Автор Сообщение

Russian Mafia ®

Пол:

Стаж: 1 год 8 месяцев

Сообщений: 4257



Награды: 10 (Подробнее)

Top Releaser 2 (Количество: 1) За внесенный вклад в развитие сайта (Количество: 1) Mega Seeder 5 (Количество: 1)
Торрент-статистика

Создавать темы 16-Окт-2016 13:03

[Цитировать]

Информация о фильме
Название: Ребята с улицы
Оригинальное название: Boyz n the Hood
Год выхода: 1991
Жанр: драма, криминал
Режиссер: Джон Синглтон
В ролях: Кьюба Гудинг мл., Айс Кьюб, Моррис Честнат, Лоренс Фишбёрн, Анджела Бассетт, Ниа Лонг, Тайра Феррелл, Реджи Грин, Алисия Роджерс, Дедрик Д. Гоберт
О фильме:
Если вы хотите жить, вам не стоит соваться в лос-анджелесский квартал Южный Централ. Это очень опасное место, где обитают сплошь крутые черные парни — такие, например, как Тре и сводные братья Рики и Дагбой.
Ежедневно варящиеся в этой адской кухне, заполненной насилием, невежеством и злобой, раю для наркоманов и убийц, они, кажется просто обречены пополнить ряды подонков общества и закончить свои дни с пулей в спине или со шприцом в вене.
Но надежда вырваться из этого жуткого мира — и не ногами вперед — не покидает героев. Только вот Южный Централ не очень-то легко отпускает своих жертв…

Страна: США
Студия: Columbia Pictures Corporation
Продолжительность: 01:52:07
Перевод: Профессиональный (многоголосый, закадровый) т/к ТНТ + Авторский (одноголосый, закадровый) А.Гаврилов
Файл
Формат: Matroska
Видео: 1280x696 at 23.976 fps, x264@L4.1, ~4525 kbps avg
Аудио#1: Russian: 48 kHz, AC3 Dolby Digital, 2/0 (L,R) ch, ~192 kbps avg |Многоголосый закадровый, т/к ТНТ|
Аудио#2: Russian: 48 kHz, AC3 Dolby Digital, 2/0 (L,R) ch, ~192 kbps avg |Авторский, А.Гаврилов|
Аудио#3: English: 48 kHz, AC3 Dolby Digital, 3/2 (L,C,R,l,r) + LFE ch, ~640 kbps avg
Субтитры: English, German, French, Spanish, Portuguese, Dutch, Hebrew
***Сохранены и подписаны оригинальные главы как на Blu-ray.
***Релиз - whalekilla.

Знаете ли вы, что...

Режиссёр и сценарист фильма Джон Синглтон появился в своём фильме в камео, исполнив роль почтальона.
По соотношению затрат/прибыли, данный фильм является наиболее финансово-успешным среди всех картин 1991 года. Ему удалось собрать около 57 миллионов долларов при бюджете всего в шесть с половиной.
Чтобы сцены внезапной стрельбы выглядели как можно более правдоподобно, режиссер никогда не говорил актерам, когда именно начнут стрелять. Как результат — их реакция самая настоящая.
В фильме у Лоренса Фишбёрна и Кьюбы Гудинга мл. разница в возрасте составляет 17 лет, тогда как в реальной жизни «папа» всего лишь на 6 лет старше «своего сына».
Для Джона Синглтона эта картина стала дебютной — когда он её снял, ему было всего лишь 23 года.
Начальная и заключительные сцены фильма — прямые отсылки к картине Роба Райнера «Останься со мной» (1986).

MI

Общее
Уникальный идентификатор : 200856439968127025139884809732571733153 (0x971B8B10D7F7BE3D9A19E0760BAB1CA1)
Полное имя : Boyz.n.the.Hood.1991.BDRip.720p.mkv
Формат : Matroska
Версия формата : Version 4 / Version 2
Размер файла : 4,35 Гбайт
Продолжительность : 1 ч. 52 м.
Общий поток : 5549 Кбит/сек
Название фильма : Boyz n the Hood (1991)
Дата кодирования : UTC 2015-04-18 17:54:19
Программа кодирования : mkvmerge v6.9.1 ('Blue Panther') 64bit built on Apr 18 2014 18:23:38
Библиотека кодирования : libebml v1.3.0 + libmatroska v1.4.1
Видео
Идентификатор : 1
Формат : AVC
Формат/Информация : Advanced Video Codec
Профиль формата : High@L4.1
Параметр CABAC формата : Да
Параметр ReFrames формата : 5 кадров
Идентификатор кодека : V_MPEG4/ISO/AVC
Продолжительность : 1 ч. 52 м.
Битрейт : 4525 Кбит/сек
Ширина : 1280 пикселей
Высота : 696 пикселей
Соотношение сторон : 1,85:1
Режим частоты кадров : Постоянный
Частота кадров : 23,976 кадра/сек
Цветовое пространство : YUV
Субдискретизация насыщенности : 4:2:0
Битовая глубина : 8 бит
Тип развёртки : Прогрессивная
Бит/(Пиксели*Кадры) : 0.212
Размер потока : 3,46 Гбайт (80%)
Заголовок : Boyz n the Hood (1991)
Библиотека кодирования : x264 core 130 r2273 b3065e6
Настройки программы : cabac=1 / ref=5 / deblock=1:-3:-3 / analyse=0x3:0x133 / me=umh / subme=11 / psy=1 / psy_rd=1.00:0.10 / mixed_ref=1 / me_range=32 / chroma_me=1 / trellis=2 / 8x8dct=1 / cqm=0 / deadzone=21,11 / fast_pskip=1 / chroma_qp_offset=-3 / threads=6 / lookahead_threads=1 / sliced_threads=0 / nr=0 / decimate=1 / interlaced=0 / bluray_compat=0 / constrained_intra=0 / bframes=8 / b_pyramid=2 / b_adapt=2 / b_bias=0 / direct=3 / weightb=1 / open_gop=0 / weightp=2 / keyint=250 / keyint_min=23 / scenecut=40 / intra_refresh=0 / rc_lookahead=60 / rc=2pass / mbtree=1 / bitrate=4525 / ratetol=1.0 / qcomp=0.60 / qpmin=0 / qpmax=69 / qpstep=4 / cplxblur=20.0 / qblur=0.5 / ip_ratio=1.40 / aq=1:1.00
Язык : English
Default : Да
Forced : Нет
Аудио #1
Идентификатор : 2
Формат : AC-3
Формат/Информация : Audio Coding 3
Расширение режима : CM (complete main)
Параметр Endianness формата : Big
Идентификатор кодека : A_AC3
Продолжительность : 1 ч. 52 м.
Вид битрейта : Постоянный
Битрейт : 192 Кбит/сек
Каналы : 2 канала
Расположение каналов : Front: L R
Частота : 48,0 КГц
Битовая глубина : 16 бит
Метод сжатия : С потерями
Размер потока : 154 Мбайт (3%)
Заголовок : АС3, 2 ch, 192 Kbps, 'THT'
Язык : Russian
Default : Да
Forced : Нет
Аудио #2
Идентификатор : 3
Формат : AC-3
Формат/Информация : Audio Coding 3
Расширение режима : CM (complete main)
Параметр Endianness формата : Big
Идентификатор кодека : A_AC3
Продолжительность : 1 ч. 52 м.
Вид битрейта : Постоянный
Битрейт : 192 Кбит/сек
Каналы : 2 канала
Расположение каналов : Front: L R
Частота : 48,0 КГц
Битовая глубина : 16 бит
Метод сжатия : С потерями
Размер потока : 154 Мбайт (3%)
Заголовок : АС3, 2 ch, 192 Kbps, Гаврилов
Язык : Russian
Default : Нет
Forced : Нет
Аудио #3
Идентификатор : 4
Формат : AC-3
Формат/Информация : Audio Coding 3
Расширение режима : CM (complete main)
Параметр Endianness формата : Big
Идентификатор кодека : A_AC3
Продолжительность : 1 ч. 52 м.
Вид битрейта : Постоянный
Битрейт : 640 Кбит/сек
Каналы : 6 каналов
Расположение каналов : Front: L C R, Side: L R, LFE
Частота : 48,0 КГц
Битовая глубина : 16 бит
Метод сжатия : С потерями
Размер потока : 513 Мбайт (12%)
Заголовок : AC3, 6 ch, 640 Kbps, Original
Язык : English
Default : Нет
Forced : Нет
Текст #1
Идентификатор : 5
Формат : UTF-8
Идентификатор кодека : S_TEXT/UTF8
Идентификатор кодека/Информация : UTF-8 Plain Text
Язык : English
Default : Нет
Forced : Нет
Текст #2
Идентификатор : 6
Формат : UTF-8
Идентификатор кодека : S_TEXT/UTF8
Идентификатор кодека/Информация : UTF-8 Plain Text
Язык : German
Default : Нет
Forced : Нет
Текст #3
Идентификатор : 7
Формат : UTF-8
Идентификатор кодека : S_TEXT/UTF8
Идентификатор кодека/Информация : UTF-8 Plain Text
Язык : French
Default : Нет
Forced : Нет
Текст #4
Идентификатор : 8
Формат : UTF-8
Идентификатор кодека : S_TEXT/UTF8
Идентификатор кодека/Информация : UTF-8 Plain Text
Язык : Spanish
Default : Нет
Forced : Нет
Текст #5
Идентификатор : 9
Формат : UTF-8
Идентификатор кодека : S_TEXT/UTF8
Идентификатор кодека/Информация : UTF-8 Plain Text
Язык : Portuguese
Default : Нет
Forced : Нет
Текст #6
Идентификатор : 10
Формат : UTF-8
Идентификатор кодека : S_TEXT/UTF8
Идентификатор кодека/Информация : UTF-8 Plain Text
Язык : Dutch
Default : Нет
Forced : Нет
Текст #7
Идентификатор : 11
Формат : UTF-8
Идентификатор кодека : S_TEXT/UTF8
Идентификатор кодека/Информация : UTF-8 Plain Text
Язык : Hebrew
Default : Нет
Forced : Нет
Меню
00:00:00.000 : en:Start
00:06:55.957 : en:South Central
00:14:06.846 : en:Mr. Styles
00:20:13.838 : en:The Agreement
00:28:59.071 : en:"You Got Him."
00:37:52.395 : en:House Rules
00:41:19.769 : en:Burglary
00:49:49.153 : en:The Neighbors
00:55:08.347 : en:With Chris
01:01:43.491 : en:Facts of Life
01:11:42.632 : en:Seven Years Later
01:17:50.499 : en:Not Old, Better
01:25:58.320 : en:Tisha
01:32:34.090 : en:"I Lied to Pops."
01:36:02.966 : en:Mama Calls
01:42:23.804 : en:Lewis Crump

Скриншоты

[Профиль] [ЛС]
Кто просматривает тему:

Форум Тема Автор Размер
Pop (Pop) Веселые Ребята - Как прекрасен этот мир - 2013 [FLAC, image+.cue, lossless] sergej644 378 MB
Pop (Pop) Веселые Ребята - Не волнуйтесь, тетя - 2013 [FLAC, image+.cue, lossless] sergej644 484 MB
Music from other genres (Pop, Retro) Весёлые ребята - 13 лет спустя (2002) [FLAC, (Image+cue), Lossless] sergej644 292 MB
Фильмы (DVD 5/9) Весёлые ребята (Алексей Бобров) [2014, Россия, комедия, DVD5] R5 Original Rus TorrentFilm 4.11 GB
Фильмы (HD Rips | 720p, 1080p) Весёлые ребята;) (2014) HDTV [1080i] sergej644 4.89 GB
Фильмы (HD Rips | 720p, 1080p) Весёлые ребята;) (Алексей Бобров) [2014, Россия, комедия, HDTV 1080i] Original Rus TorrentFilm 6.5 GB
Фильмы 2006-2008 года Пропащие ребята 2: Племя / Lost Boys: The Tribe (П.Дж. Пеше / P.J. Pesce) [2008, США, Канада, ужасы, триллер, комедия, BDRip] Dub + MVO (Ukr) + Sub (Rus. Eng) + Original Eng painkiller 2.06 GB
Фильмы 2010 года Прочие ребята / Копы в глубоком запасе / The Other Guys (Адам МакКей / Adam McKay) [2010 г., США, Боевик, Комедия, HDRip] [Расширенная версия / Extended version] AVO (Карповский) reversefile 2.18 GB
Показать сообщения:    

Текущее время: Сегодня 00:20

Часовой пояс: GMT



Вы не можете начинать темы
Вы не можете отвечать на сообщения
Вы не можете редактировать свои сообщения
Вы не можете удалять свои сообщения
Вы не можете голосовать в опросах
Вы не можете прикреплять файлы к сообщениям
Вы не можете скачивать файлы