Реальные "Злые птицы" / Real Angry Birds (Фил Коулс / Phil Coles) [2014, Документальный, HDTVRip 720p]

 
Автор Сообщение

TorrentFilm ®

Пол:

Стаж: 2 года

Сообщений: 7741



Награды: Нет

Торрент-статистика

Создавать темы 21-Июл-2015 00:11

[Цитировать]

Реальные "Злые птицы" / Real Angry Birds Год выпуска: 2014
Страна: Германия
Студия: NDR Naturfilm doclights GmbH
Канал:
Жанр: Документальный
Продолжительность: 00:43:33
Перевод: Профессиональный (дублированный)
Доп. инфо о переводе: Студия "Велес" (Олег Белов)
Режиссер: Фил Коулс / Phil Coles
Описание: Компьютерные игры из серии "Злые птицы" популярны у детей, но как на самом деле дикие птицы выживают, находят пищу и растят своё потомство?

Тип релиза: HDTVRip 720p
Контейнер: MKV
Видео: MPEG-4 AVC (H.264), 1280x720 (16:9), 4800 Kbps, 25 fps, 0.208 bit\pixel
Аудио: MP2, 192 Кбит/с, 48 kHz, 2 ch

MediaInfo

GeneralUnique ID : 188632028549165459073355043995437014143 (0x8DE9350CB832E3808EB4B7782D0C9C7F)Complete name : D:\Видео\Флора и фауна\Real Angry Birds HDTVRip-720p.mkvFormat : MatroskaFormat version : Version 2File size : 1.52 GiBDuration : 43mn 33sOverall bit rate : 4 990 KbpsEncoded date : UTC 2015-07-12 14:29:20Writing application : mkvmerge v7.8.0 ('River Man') 32bit built on Apr 3 2015 12:11:22Writing library : libebml v1.3.1 + libmatroska v1.4.2
VideoID : 1Format : AVCFormat/Info : Advanced Video CodecFormat profile : High@L4.1Format settings, CABAC : YesFormat settings, ReFrames : 6 framesCodec ID : V_MPEG4/ISO/AVCDuration : 43mn 33sBit rate : 4 800 KbpsWidth : 1 280 pixelsHeight : 720 pixelsDisplay aspect ratio : 16:9Frame rate mode : ConstantFrame rate : 25.000 fpsColor space : YUVChroma subsampling : 4:2:0Bit depth : 8 bitsScan type : ProgressiveBits/(Pixel*Frame) : 0.208Stream size : 1.43 GiB (94%)Writing library : x264 core 146 r2538 121396cEncoding settings : cabac=1 / ref=6 / deblock=1:0:0 / analyse=0x3:0x113 / me=umh / subme=9 / psy=1 / psy_rd=1.05:0.15 / mixed_ref=1 / me_range=32 / chroma_me=1 / trellis=2 / 8x8dct=1 / cqm=0 / deadzone=21,11 / fast_pskip=1 / chroma_qp_offset=-3 / threads=6 / lookahead_threads=1 / sliced_threads=0 / nr=0 / decimate=1 / interlaced=0 / bluray_compat=0 / constrained_intra=0 / bframes=7 / b_pyramid=2 / b_adapt=2 / b_bias=0 / direct=1 / weightb=1 / open_gop=0 / weightp=2 / keyint=250 / keyint_min=25 / scenecut=40 / intra_refresh=0 / rc_lookahead=60 / rc=2pass / mbtree=1 / bitrate=4800 / ratetol=1.0 / qcomp=0.60 / qpmin=0 / qpmax=69 / qpstep=4 / cplxblur=20.0 / qblur=0.5 / ip_ratio=1.40 / aq=2:1.00Default : YesForced : No
AudioID : 2Format : MPEG AudioFormat version : Version 1Format profile : Layer 2Codec ID : A_MPEG/L2Codec ID/Hint : MP2Duration : 43mn 33sBit rate mode : ConstantBit rate : 192 KbpsChannel(s) : 2 channelsSampling rate : 48.0 KHzCompression mode : LossyStream size : 59.8 MiB (4%)Default : YesForced : No

Скриншоты

[Профиль] [ЛС]
Показать сообщения:    

Текущее время: Сегодня 02:15

Часовой пояс: GMT



Вы не можете начинать темы
Вы не можете отвечать на сообщения
Вы не можете редактировать свои сообщения
Вы не можете удалять свои сообщения
Вы не можете голосовать в опросах
Вы не можете прикреплять файлы к сообщениям
Вы не можете скачивать файлы