Реальная сказка (2011) BDRip 1080p

 
Автор Сообщение

sergej644 ®

Пол:

Стаж: 4 года 11 месяцев

Сообщений: 6038

Откуда: Soviet Union



Награды: Нет

Торрент-статистика

Создавать темы 27-Янв-2015 04:28

[Цитировать]

Информация о фильме
Название: Реальная сказка
Год выхода: 2011
Жанр: фэнтези, драма, комедия, семейный
Режиссер: Андрей Мармонтов
В ролях: Максим Шибаев, Анастасия Добрынина, Сергей Безруков, Леонид Ярмольник, Людмила Полякова, Ирина Безрукова, Георгий Штиль, Анна Герман, Алексей Дмитриев, Павел Климов
О фильме:
Жили-были сестрица Олесенька и братец Саша... Нет, так не пойдет: кажется, прошла пора старых-добрых сказок. Даже сказочные персонажи, понимая это, переселились в наш мир: Василиса Премудрая стала учительницей, Леший - бомжом, Иван-дурак - ВДВшником, Кащей - олигархом. Злые дела творить он, конечно, не бросил. И главным его злодеянием стало то, что он лишил нас веры в чудо. Люди стали эгоистичными, расчетливыми и прагматичными, что Кащею - как бальзам на душу. Только одно не дает ему спокойно спать: благодаря сказкам, каждый ребенок знает, где искать его смерть. И какой же он после этого бессмертный? Кащей идет на крайние меры и безжалостно уничтожает все страницы сказок, где описана его страшная тайна.
Маленькая девочка Олеся находит нетронутую старинную книгу сказок и, прочитав ее, вскоре... исчезает. Старший брат девочки, школьник Саша, бросается на поиски, рассчитывая на поддержку новых знакомых - Ивана-дурака и его жены Василисы, - но они, вопреки ожиданиям, не спешат помогать ему в его борьбе с Кащеем. Саша же готов пойти на все, чтобы вернуть сестренку и подарить миру веру в чудо.

Выпущено: Россия
Продолжительность: 01:41:58
Перевод: не требуется
Файл
Форат: MKV
Кодек: H264
Качество: BDRip 1080p
Видео: 1920x816, 5502 Kbps, 25 fps
Звук: 48 kHz, AC3, 6c, 640 kbps

Скриншоты

MI

General
Unique ID : 231547223925523223794630324770274595808 (0xAE325F8AAD435D94A07DB80205E0D3E0)
Complete name : Реальная сказка.2011.BDRip.1080p.mkv
Format : Matroska
Format version : Version 2
File size : 4.37 GiB
Duration : 1h 41mn
Overall bit rate : 6 141 Kbps
Movie name : Реальная сказка.2011
Encoded date : UTC 2012-02-11 06:22:03
Writing application : mkvmerge v5.3.0 ('I could have danced') built on Feb 9 2012 10:38:07
Writing library : libebml v1.2.3 + libmatroska v1.3.0
Video
ID : 1
Format : AVC
Format/Info : Advanced Video Codec
Format profile : High@L4.1
Format settings, CABAC : Yes
Format settings, ReFrames : 5 frames
Codec ID : V_MPEG4/ISO/AVC
Duration : 1h 41mn
Bit rate : 5 502 Kbps
Width : 1 920 pixels
Height : 816 pixels
Display aspect ratio : 2.35:1
Frame rate mode : Variable
Frame rate : 25.000 fps
Color space : YUV
Chroma subsampling : 4:2:0
Bit depth : 8 bits
Scan type : Progressive
Bits/(Pixel*Frame) : 0.140
Stream size : 3.83 GiB (88%)
Title : Rip by Boriy
Writing library : x264 core 120 r2146M bcd41db
Encoding settings : cabac=1 / ref=5 / deblock=1:0:0 / analyse=0x3:0x133 / me=umh / subme=10 / psy=1 / psy_rd=1.00:0.10 / mixed_ref=1 / me_range=32 / chroma_me=1 / trellis=2 / 8x8dct=1 / cqm=0 / deadzone=21,11 / fast_pskip=0 / chroma_qp_offset=-3 / threads=12 / sliced_threads=0 / nr=0 / decimate=1 / interlaced=0 / bluray_compat=0 / constrained_intra=0 / bframes=5 / b_pyramid=2 / b_adapt=2 / b_bias=0 / direct=3 / weightb=1 / open_gop=0 / weightp=2 / keyint=250 / keyint_min=25 / scenecut=40 / intra_refresh=0 / rc_lookahead=60 / rc=2pass / mbtree=1 / bitrate=5502 / ratetol=1.0 / qcomp=0.60 / qpmin=0 / qpmax=69 / qpstep=4 / cplxblur=20.0 / qblur=0.5 / ip_ratio=1.40 / aq=1:1.00
Language : English
Default : Yes
Forced : No
Audio
ID : 2
Format : AC-3
Format/Info : Audio Coding 3
Mode extension : CM (complete main)
Codec ID : A_AC3
Duration : 1h 41mn
Bit rate mode : Constant
Bit rate : 640 Kbps
Channel(s) : 6 channels
Channel positions : Front: L C R, Side: L R, LFE
Sampling rate : 48.0 KHz
Bit depth : 16 bits
Compression mode : Lossy
Stream size : 467 MiB (10%)
Title : Оригинал
Language : Russian
Default : Yes
Forced : No
Menu
00:00:00.000 : en:
00:01:53.679 : en:
00:10:36.400 : en:
00:22:32.320 : en:
00:31:32.560 : en:
00:44:06.320 : en:
00:55:09.520 : en:
01:05:34.960 : en:
01:15:24.400 : en:
[Профиль] [ЛС]
Показать сообщения:    

Текущее время: Сегодня 14:35

Часовой пояс: GMT



Вы не можете начинать темы
Вы не можете отвечать на сообщения
Вы не можете редактировать свои сообщения
Вы не можете удалять свои сообщения
Вы не можете голосовать в опросах
Вы не можете прикреплять файлы к сообщениям
Вы не можете скачивать файлы