Реальная любовь / Love Actually (2003) BDRip 720p

 
Автор Сообщение

Russian Mafia ®

Пол:

Стаж: 1 год 8 месяцев

Сообщений: 4256



Награды: 10 (Подробнее)

За внесенный вклад в развитие сайта (Количество: 1) Mega Seeder 2 (Количество: 1) Top Releaser 5 (Количество: 1)
Торрент-статистика

Создавать темы 04-Авг-2016 13:15

[Цитировать]

Информация о фильме
Название: Реальная любовь
Оригинальное название: Love Actually
Год выхода: 2003
Жанр: драма, мелодрама, комедия
Режиссер: Ричард Кёртис
В ролях: Хью Грант, Билл Найи, Лиам Нисон, Эмма Томпсон, Колин Фёрт, Алан Рикман, Мартина МакКачон, Кира Найтли, Крис Маршалл, Лора Линни
О фильме: Любовь незабываемая и недосягаемая, вызывающая сожаление и экстатическая, неожиданная и нежеланная, неудобная и необъяснимая, неизящная и неравная. Любовь поистине правит всеми вокруг. От премьер-министра, мгновенно влюбившегося в сотрудницу своего аппарата, — до писателя, сбежавшего на юг Франции, чтобы склеить свое разбитое сердце…

Выпущено: Universal Pictures
Продолжительность: 02:14:53
Перевод: Дублированный (лицензия) + Авторский (Ю.Сербин, А.Гаврилов, С.Визгунов) + Украинский (многоголосый закадровый) + Оригинал
Файл
Кодек: x264
Качество: BDRip (источник: Blu-ray Disc)
Видео: 1280x546 (2,35:1), 23.976 fps, 5870 kbps
Аудио #1: AC-3, 6 ch, 448 kbps (Дубляж, Blu-ray CP Digital)
Аудио #2: AC-3, 6 ch, 448 kbps (Одноголосый закадровый, Ю.Сербин)
Аудио #3: AC-3, 6 ch, 384 kbps (Одноголосый закадровый, А.Гаврилов)
Аудио #4: AC-3, 2 ch, 192 kbps (Одноголосый закадровый, С.Визгунов)
Аудио #5: AC-3, 6 ch, 448 kbps (Многоголосый закадровый, Украинский)
Аудио #6: AC-3, 6 ch, 448 kbps (Original)
Субтитры: Русские (2 вида), Английские (форс,полные)
Скачать: сэмпл
Скриншоты

MI

Общее
Уникальный идентификатор : 236023787092842272471552996495254154412 (0xB19087256F9EA86F980EBD671AA4ECAC)
Полное имя : Love.Actually.2003.BDRip.720p.Rus.Ukr.Eng.mkv
Формат : Matroska
Версия формата : Version 2
Размер файла : 7,76 Гбайт
Продолжительность : 2 ч. 14 м.
Общий поток : 8239 Кбит/сек
Название фильма : Реальная любовь / Love Actually (2003)
Дата кодирования : UTC 2014-01-07 20:04:38
Программа кодирования : mkvmerge v5.8.0 ('No Sleep / Pillow') built on Sep 2 2012 15:37:04
Библиотека кодирования : libebml v1.2.3 + libmatroska v1.3.0
Видео
Идентификатор : 1
Формат : AVC
Формат/Информация : Advanced Video Codec
Профиль формата : High@L4.1
Параметр CABAC формата : Да
Параметр ReFrames формата : 8 кадров
Идентификатор кодека : V_MPEG4/ISO/AVC
Продолжительность : 2 ч. 14 м.
Битрейт : 5870 Кбит/сек
Ширина : 1280 пикселей
Высота : 546 пикселей
Соотношение сторон : 2,35:1
Режим частоты кадров : Постоянный
Частота кадров : 23,976 кадра/сек
Цветовое пространство : YUV
Субдискретизация насыщенности : 4:2:0
Битовая глубина : 8 бит
Тип развёртки : Прогрессивная
Бит/(Пиксели*Кадры) : 0.350
Размер потока : 5,38 Гбайт (69%)
Заголовок : Release by AlexKa
Библиотека кодирования : x264 core 140 r2377 1ca7bb9
Настройки программы : cabac=1 / ref=8 / deblock=1:-3:-3 / analyse=0x3:0x133 / me=umh / subme=11 / psy=1 / psy_rd=1.00:0.10 / mixed_ref=1 / me_range=32 / chroma_me=1 / trellis=2 / 8x8dct=1 / cqm=0 / deadzone=21,11 / fast_pskip=0 / chroma_qp_offset=-3 / threads=12 / lookahead_threads=3 / sliced_threads=0 / nr=0 / decimate=1 / interlaced=0 / bluray_compat=0 / constrained_intra=0 / bframes=10 / b_pyramid=2 / b_adapt=2 / b_bias=0 / direct=3 / weightb=1 / open_gop=0 / weightp=2 / keyint=240 / keyint_min=23 / scenecut=40 / intra_refresh=0 / rc=2pass / mbtree=0 / bitrate=5870 / ratetol=1.0 / qcomp=0.60 / qpmin=0 / qpmax=69 / qpstep=4 / cplxblur=20.0 / qblur=0.5 / ip_ratio=1.40 / pb_ratio=1.30 / aq=1:0.90
Язык : English
Аудио #1
Идентификатор : 2
Формат : AC-3
Формат/Информация : Audio Coding 3
Расширение режима : CM (complete main)
Параметр Endianness формата : Big
Идентификатор кодека : A_AC3
Продолжительность : 2 ч. 14 м.
Вид битрейта : Постоянный
Битрейт : 448 Кбит/сек
Каналы : 6 каналов
Расположение каналов : Front: L C R, Side: L R, LFE
Частота : 48,0 КГц
Битовая глубина : 16 бит
Метод сжатия : С потерями
Размер потока : 432 Мбайт (5%)
Заголовок : Дубляж, Blu-ray CP Digital
Язык : Russian
Аудио #2
Идентификатор : 3
Формат : AC-3
Формат/Информация : Audio Coding 3
Расширение режима : CM (complete main)
Параметр Endianness формата : Big
Идентификатор кодека : A_AC3
Продолжительность : 2 ч. 14 м.
Вид битрейта : Постоянный
Битрейт : 448 Кбит/сек
Каналы : 6 каналов
Расположение каналов : Front: L C R, Side: L R, LFE
Частота : 48,0 КГц
Битовая глубина : 16 бит
Метод сжатия : С потерями
Размер потока : 432 Мбайт (5%)
Заголовок : Одноголосый закадровый, Ю.Сербин
Язык : Russian
Аудио #3
Идентификатор : 4
Формат : AC-3
Формат/Информация : Audio Coding 3
Расширение режима : CM (complete main)
Параметр Endianness формата : Big
Идентификатор кодека : A_AC3
Продолжительность : 2 ч. 14 м.
Вид битрейта : Постоянный
Битрейт : 384 Кбит/сек
Каналы : 6 каналов
Расположение каналов : Front: L C R, Side: L R, LFE
Частота : 48,0 КГц
Битовая глубина : 16 бит
Метод сжатия : С потерями
Размер потока : 370 Мбайт (5%)
Заголовок : Одноголосый закадровый, А.Гаврилов
Язык : Russian
Аудио #4
Идентификатор : 5
Формат : AC-3
Формат/Информация : Audio Coding 3
Расширение режима : CM (complete main)
Параметр Endianness формата : Big
Идентификатор кодека : A_AC3
Продолжительность : 2 ч. 14 м.
Вид битрейта : Постоянный
Битрейт : 192 Кбит/сек
Каналы : 2 канала
Расположение каналов : Front: L R
Частота : 48,0 КГц
Битовая глубина : 16 бит
Метод сжатия : С потерями
Размер потока : 185 Мбайт (2%)
Заголовок : Одноголосый закадровый, С.Визгунов
Язык : Russian
Аудио #5
Идентификатор : 6
Формат : AC-3
Формат/Информация : Audio Coding 3
Расширение режима : CM (complete main)
Параметр Endianness формата : Big
Идентификатор кодека : A_AC3
Продолжительность : 2 ч. 14 м.
Вид битрейта : Постоянный
Битрейт : 448 Кбит/сек
Каналы : 6 каналов
Расположение каналов : Front: L C R, Side: L R, LFE
Частота : 48,0 КГц
Битовая глубина : 16 бит
Метод сжатия : С потерями
Размер потока : 432 Мбайт (5%)
Заголовок : Многоголосый закадровый
Язык : Ukrainian
Аудио #6
Идентификатор : 7
Формат : AC-3
Формат/Информация : Audio Coding 3
Расширение режима : CM (complete main)
Параметр Endianness формата : Big
Идентификатор кодека : A_AC3
Продолжительность : 2 ч. 14 м.
Вид битрейта : Постоянный
Битрейт : 448 Кбит/сек
Каналы : 6 каналов
Расположение каналов : Front: L C R, Side: L R, LFE
Частота : 48,0 КГц
Битовая глубина : 16 бит
Метод сжатия : С потерями
Размер потока : 432 Мбайт (5%)
Заголовок : Original
Язык : English
Текст #1
Идентификатор : 8
Формат : UTF-8
Идентификатор кодека : S_TEXT/UTF8
Идентификатор кодека/Информация : UTF-8 Plain Text
Заголовок : Rus CP Digital
Язык : Russian
Текст #2
Идентификатор : 9
Формат : UTF-8
Идентификатор кодека : S_TEXT/UTF8
Идентификатор кодека/Информация : UTF-8 Plain Text
Заголовок : Rus Elberet
Язык : Russian
Текст #3
Идентификатор : 10
Формат : UTF-8
Идентификатор кодека : S_TEXT/UTF8
Идентификатор кодека/Информация : UTF-8 Plain Text
Заголовок : Eng forced
Язык : English
Текст #4
Идентификатор : 11
Формат : UTF-8
Идентификатор кодека : S_TEXT/UTF8
Идентификатор кодека/Информация : UTF-8 Plain Text
Заголовок : Eng
Язык : English
Меню
00:00:00.000 : ru:Вступление
00:09:42.000 : ru:Причуды судьбы
00:22:41.000 : ru:Государственные дела
00:33:20.000 : ru:Первая любовь
00:46:39.000 : ru:Домработница
00:57:12.000 : ru:Принятие решений
01:08:07.000 : ru:Напряженное свидание
01:20:46.000 : ru:Неделя до Рождества
01:31:39.000 : ru:Канун Рождества
01:41:24.000 : ru:Поздравления
01:54:45.000 : ru:Исправление ошибок
02:06:40.000 : ru:Заключение

x264

x264 [info]: frame I:1685 Avg QP:17.46 size:128373
x264 [info]: frame P:39209 Avg QP:19.68 size: 56233
x264 [info]: frame B:153137 Avg QP:21.70 size: 22954
x264 [info]: consecutive B-frames: 1.6% 2.8% 5.6% 16.0% 16.9% 41.9% 7.3% 2.0% 2.7% 1.9% 1.3%
[Профиль] [ЛС]
Показать сообщения:    

Текущее время: Сегодня 14:44

Часовой пояс: GMT



Вы не можете начинать темы
Вы не можете отвечать на сообщения
Вы не можете редактировать свои сообщения
Вы не можете удалять свои сообщения
Вы не можете голосовать в опросах
Вы не можете прикреплять файлы к сообщениям
Вы не можете скачивать файлы