Расшифрованные сокровища (Сокровища мира) / Treasures Decoded [сезоны 1-3 серий 17 из 18] (Jo Locke, David New, Graeme Ball, Toby Trackman, Ana Thomson) [2012-2015 г., окументальный, альтернативная история, псевдоистория, HDTVRip-AVC 720p]

 
Автор Сообщение

skorpionN ®

Пол:

Стаж: 2 года 8 месяцев

Сообщений: 853



Награды: 4 (Подробнее)

Mega Seeder 2 (Количество: 1) Mega Seeder 1 (Количество: 1) Top Releaser 2 (Количество: 1)
Торрент-статистика

Создавать темы 14-Сен-2017 14:27

[Цитировать]

Расшифрованные сокровища (Сокровища мира) / Treasures Decoded [сезоны 1-3 серий 17 из 18]
Год выпуска: 2012-2015
Страна: Великобритания, Канада, Entertainment One & Blink Films
Жанр: окументальный, альтернативная история, псевдоистория
Продолжительность: 17x~00:45:00
Перевод: Профессиональный (двухголосый)б Видеофильм ТВ, студия "Кондор" по заказу ГТРК Культура, компания SDI Media по заказу ТПО "Ред Медиа"
Режиссер: Jo Locke, David New, Graeme Ball, Toby Trackman, Ana Thomson
Описание: Сокровища прошлого хранят секреты; написанные кровью, камнем, золотом... Все они обладают удивительными тайнами, которые были неизвестны до сих пор. В новом сезоне документального цикла "Расшифрованные сокровища" с помощью экспертов мы попытаемся раскрыть всю правду.
Список серий:
Сезон 1:
01. Туринская плащаница / The Turin Shroud ОТСУТСТВУЕТ
02. Жена Иисуса / Jesus' Wife
03. Сфинкс / The Sphinx
04. Золотой плот Эльдорадо / The Golden Raft of El Dorado
05. Карта Винланда / The Vinland Map

Сезон 2:
01. Моаи острова Пасхи / Easter Island Heads
02. Портрет Нефертити / Bust of Nefertiti
03. Великая пирамида / Great Pyramid
04. Корабль Чёрной Бороды / Blackbeard's Ship
05. Ковчег завета / Ark of the Covenant
06. Копьё судьбы / Christ's Holy Spear

Сезон 3:
01. В поисках Атлантиды / The Search for Atlantis
02. Таинственный город пирамид Америки / America's Hidden Pyramid City
03. В поисках Святого Грааля / The Truth About the Holy Grail
04. Карта сокровищ Мёртвого моря (Секреты Медных свитков) / The Dead Sea Treasure Map (Secrets The Copper Scroll)
05. Затерянный город фараонов / The Lost City of the Pharaohs
06. Гробница Тутанхамона: тайная комната / King Tut's Tomb: The Hidden Chamber
07. Троянский конь: миф или реальность? / The Trojan Horse Mystery

Качество: HDTVRip-AVC
Формат: MKV
Видео кодек: H.264
Аудио кодек: AC3
Видео 1-2 сезоны: 1280x720 25.00fps 4000 Kbps
Видео 2 сезон: 1280x720 25.00fps 3200-4000 Kbps
Аудио 1-2 сезоны: AC3 2ch, 48kHz, 192 kbps
Аудио 3 сезон:
Аудио 1: (Rus) AC3 2ch, 48kHz, 192 kbps
Аудио 2: (En) AC3, 2 ch, 48 KHz, 192 Kbps

MediaInfo 1-2 сезоны:

Format : Matroska
Format version : Version 4 / Version 2
File size : 1.35 GiB
Duration : 46 min 2 s
Overall bit rate mode : Variable
Overall bit rate : 4 193 kb/s
Encoded date : UTC 2017-02-17 17:33:03
Writing application : mkvmerge v7.3.0 ('Nouages') 64bit built on Oct 22 2014 18:53:34
Writing library : libebml v1.3.0 + libmatroska v1.4.1
Video
ID : 1
Format : AVC
Format/Info : Advanced Video Codec
Format profile : High@L4
Format settings, CABAC : Yes
Format settings, ReFrames : 3 frames
Codec ID : V_MPEG4/ISO/AVC
Duration : 46 min 2 s
Bit rate mode : Variable
Bit rate : 4 000 kb/s
Maximum bit rate : 8 000 kb/s
Width : 1 280 pixels
Height : 720 pixels
Display aspect ratio : 16:9
Frame rate mode : Constant
Frame rate : 25.000 FPS
Standard : NTSC
Color space : YUV
Chroma subsampling : 4:2:0
Bit depth : 8 bits
Scan type : Progressive
Bits/(Pixel*Frame) : 0.174
Stream size : 1.29 GiB (95%)
Writing library : x264 core 114
Encoding settings : cabac=1 / ref=3 / deblock=1:0:0 / analyse=0x3:0x113 / me=hex / subme=7 / psy=1 / psy_rd=1.00:0.00 / mixed_ref=1 / me_range=16 / chroma_me=1 / trellis=1 / 8x8dct=1 / cqm=2 / deadzone=21,11 / fast_pskip=1 / chroma_qp_offset=-4 / threads=6 / sliced_threads=0 / slices=1 / nr=0 / decimate=1 / interlaced=0 / constrained_intra=0 / bframes=3 / b_pyramid=0 / b_adapt=1 / b_bias=0 / direct=1 / weightb=1 / open_gop=0 / weightp=2 / keyint=250 / keyint_min=25 / scenecut=40 / intra_refresh=0 / rc_lookahead=40 / rc=2pass / mbtree=1 / bitrate=4000 / ratetol=1.0 / qcomp=0.60 / qpmin=5 / qpmax=69 / qpstep=4 / cplxblur=20.0 / qblur=0.5 / vbv_maxrate=8000 / vbv_bufsize=7995 / nal_hrd=vbr / ip_ratio=1.40 / aq=1:1.00
Default : Yes
Forced : No
Color range : Limited
Color primaries : BT.709
Transfer characteristics : BT.709
Matrix coefficients : BT.709
Audio
ID : 2
Format : AC-3
Format/Info : Audio Coding 3
Mode extension : CM (complete main)
Format settings, Endianness : Big
Codec ID : A_AC3
Duration : 46 min 2 s
Bit rate mode : Constant
Bit rate : 192 kb/s
Channel(s) : 2 channels
Channel positions : Front: L R
Sampling rate : 48.0 kHz
Frame rate : 31.250 FPS (1536 spf)
Compression mode : Lossy
Stream size : 63.2 MiB (5%)
Default : Yes
Forced : No

MediaInfo 3 сезон:

Format : Matroska
Format version : Version 4 / Version 2
File size : 1.13 GiB
Duration : 45 min 0 s
Overall bit rate mode : Variable
Overall bit rate : 3 587 kb/s
Encoded date : UTC 2017-01-17 17:27:16
Writing application : mkvmerge v7.3.0 ('Nouages') 64bit built on Oct 22 2014 18:53:34
Writing library : libebml v1.3.0 + libmatroska v1.4.1
Video
ID : 1
Format : AVC
Format/Info : Advanced Video Codec
Format profile : High@L4.1
Format settings, CABAC : Yes
Format settings, ReFrames : 3 frames
Codec ID : V_MPEG4/ISO/AVC
Duration : 45 min 0 s
Bit rate mode : Variable
Bit rate : 3 200 kb/s
Maximum bit rate : 8 000 kb/s
Width : 1 280 pixels
Height : 720 pixels
Display aspect ratio : 16:9
Frame rate mode : Constant
Frame rate : 25.000 FPS
Standard : NTSC
Color space : YUV
Chroma subsampling : 4:2:0
Bit depth : 8 bits
Scan type : Progressive
Bits/(Pixel*Frame) : 0.139
Stream size : 1.01 GiB (89%)
Writing library : x264 core 114
Encoding settings : cabac=1 / ref=3 / deblock=1:0:0 / analyse=0x3:0x113 / me=hex / subme=7 / psy=1 / psy_rd=1.00:0.00 / mixed_ref=1 / me_range=16 / chroma_me=1 / trellis=1 / 8x8dct=1 / cqm=2 / deadzone=21,11 / fast_pskip=1 / chroma_qp_offset=-4 / threads=6 / sliced_threads=0 / slices=1 / nr=0 / decimate=1 / interlaced=0 / constrained_intra=0 / bframes=3 / b_pyramid=0 / b_adapt=1 / b_bias=0 / direct=1 / weightb=1 / open_gop=0 / weightp=2 / keyint=250 / keyint_min=25 / scenecut=40 / intra_refresh=0 / rc_lookahead=40 / rc=2pass / mbtree=1 / bitrate=3200 / ratetol=1.0 / qcomp=0.60 / qpmin=5 / qpmax=69 / qpstep=4 / cplxblur=20.0 / qblur=0.5 / vbv_maxrate=8000 / vbv_bufsize=7995 / nal_hrd=vbr / ip_ratio=1.40 / aq=1:1.00
Default : Yes
Forced : No
Color range : Limited
Color primaries : BT.709
Transfer characteristics : BT.709
Matrix coefficients : BT.709
Audio #1
ID : 2
Format : AC-3
Format/Info : Audio Coding 3
Mode extension : CM (complete main)
Format settings, Endianness : Big
Codec ID : A_AC3
Duration : 45 min 0 s
Bit rate mode : Constant
Bit rate : 192 kb/s
Channel(s) : 2 channels
Channel positions : Front: L R
Sampling rate : 48.0 kHz
Frame rate : 31.250 FPS (1536 spf)
Compression mode : Lossy
Stream size : 61.8 MiB (5%)
Language : Russian
Default : Yes
Forced : No
Audio #2
ID : 3
Format : AC-3
Format/Info : Audio Coding 3
Mode extension : CM (complete main)
Format settings, Endianness : Big
Codec ID : A_AC3
Duration : 45 min 0 s
Bit rate mode : Constant
Bit rate : 192 kb/s
Channel(s) : 2 channels
Channel positions : Front: L R
Sampling rate : 48.0 kHz
Frame rate : 31.250 FPS (1536 spf)
Compression mode : Lossy
Stream size : 61.8 MiB (5%)
Language : English
Default : No
Forced : Yes
[Профиль] [ЛС]
Кто просматривает тему:

Форум Тема Автор Размер
Action FPS (1st Person) Crysis 2: Maximum Edition / Crysis 2: Расширенное Издание [L] [RUS / RUS] (2011) (1.9) TorrentFilm 10.89 GB
Action FPS (1st Person) Crysis: Maximum Edition / Crysis: Расширенное Коллекционное Издание [RePack] [RUS / RUS] (2008) (1.2.1) (1.1) (1.5) TorrentFilm 13.9 GB
Фильмы 2011 года SuperПерцы / СуперПерцы / Четкие пацаны / Superbad (Грег Моттола / Greg Mottola) [2007, США, Комедия, BDRip] [Расширенная версия / Unrated] Dub (со вставками DVO) + Original Eng + subs (Rus, Eng) TorrentFilm 2.18 GB
Windows 7 Windows 7 RUS SP1 [4 in 1] [Updated 17.01.2016] с расширенным установщиком На базе Windows 7 [x64] nickson-82 3.02 GB
Зарубежные Xоббuт: Пycтошь Cмayга(Расширенная версия) в 3Д / The Ноbbіt: The Dеsоlatіon of Smаug(Extended Cut) 3D (Питер Джексон / Peter Jackson) [2013, Фэнтези, Приключения, BDrip, 1080p] O... TorrentFilm 24.94 GB
Зарубежные Xоббит: Пyстошь Смaуга в 3Д / The Нobbit: The Desоlation of Smаug 3D [Расширенная версия / Extended Edition] (Питер Джексон / Peter Jackson) [2013, Фэнтези, Приключения, BDrip-AVC] Half OverUnder... TorrentFilm 13.13 GB
Программы [Разное] MapcamDroid Антирадар Расширенная база России [Android 2.2, RUS + ENG] TorrentFilm 9 MB
Фильмы 2009 года Аватар / Avatar (Джеймс Кэмерон / James Cameron) [2009, США, Фантастика, боевик, драма, приключения, BDRip] [Расширенная версия / Extended Cut] Dub + Sub TorrentFilm 1.47 GB
Показать сообщения:    

Текущее время: Сегодня 21:25

Часовой пояс: GMT



Вы не можете начинать темы
Вы не можете отвечать на сообщения
Вы не можете редактировать свои сообщения
Вы не можете удалять свои сообщения
Вы не можете голосовать в опросах
Вы не можете прикреплять файлы к сообщениям
Вы не можете скачивать файлы