Расцвет мисс Джин Броди / The Prime of Miss Jean Brodie (1969) BDRip 1080p by msltel | P

 
Автор Сообщение

sergej644 ®

Пол:

Стаж: 4 года 11 месяцев

Сообщений: 6046

Откуда: Soviet Union



Награды: Нет

Торрент-статистика

Создавать темы 04-Мар-2015 16:13

[Цитировать]

Год выпуска: 1969
Страна: Великобритания
Жанр: драма
Продолжительность: 01:56:01
Перевод: профессиональный многоголосый
Субтитры: русские (форсированные), русские, английские
Режиссёр: Роналд Ним
В ролях: Мэгги Смит, Роберт Стивенс, Памела Фрэнклин, Гордон Джексон, Силия Джонсон, Дайэн Грэйсон, Джейн Карр, Ширли Стидман, Лавиния Лэнг, Антуанетта Биггерстаф, Марго Каннингэм, Айсла Кэмерон, Рона Андерсон, Энн Уэй, Молли Вейр
Описание: Действие происходит в привилегированной частной школе в Эдинбурге в 1930-х. Преподавательница Джин Броди ведёт класс в шотландской школе для девочек, но вместо традиционных курсов рассказывает им трагическую историю своей первой любви, а затем проводит занятия по "Истине, Добру и Красоте". Против мисс Броди ополчаются коллеги, но школьницы стоят за свою учительницу горой. Мисс Броди, уверившись в собственной непогрешимости, вступает в любовную связь с учителем рисования Тедди Ллойдом и учителем музыки Гордоном Лойтером и, вдобавок ко всему, открыто выражает одобрение порядку и дисциплине, царящим в фашистских странах. Ученицы меняют к ней свое отношение, называют «забавной старой девой», а одна из них, Сэнди, наводит директрису на мысль уволить Броди за опасные политические взгляды... Фильм по одноимённому роману Мюриэл Спарк.

Качество: BDRip 1080p Сравнение с исходником
Формат: MKV
Видео кодек: H.264
Аудио кодек: AC3, DTS
Видео: 19.5 Mбит/с, 1920x1036, 23.976 кадра/с, 0.408 bpp
Аудио 1: русский, DTS, 768 kbps, 2 ch, 48 kHz [профессиональный многоголосый, Спб, 5 канал]
Аудио 2: английский, AC3, 192 kbps, 1 ch, 48 kHz [оригинал]
Имеются неименованные главы/чаптеры.

Награды

Оскар, 1970 год
Победитель (1):
Лучшая женская роль (Мэгги Смит)
Номинации (1):
Лучшая песня — «Jean»
Золотой глобус, 1970 год
Победитель (1):
Лучшая песня — «Jean»
Номинации (2):
Лучшая женская роль (драма) (Мэгги Смит)
Лучший фильм (драма)
Британская академия, 1970 год
Победитель (2):
Лучшая женская роль (Мэгги Смит)
Лучшая женская роль второго плана (Селия Джонсон)
Номинации (1):
Лучшая женская роль второго плана (Памела Франклин)
Каннский кинофестиваль, 1969 год
Номинации (1):
Золотая пальмовая ветвь

Кванты и MediaInfo

frame I:1057 Avg QP:18.73 size:229335
frame P:29607 Avg QP:20.07 size:168449
frame B:136249 Avg QP:22.12 size: 88596
Общее
Уникальный идентификатор : 205969325871937773017174846710848255000 (0x9AF43FCDAE7BA878B8856A9872057418)
Полное имя : D:VideoRascvet miss Dgin Brodi.1969.BDRip.1080p.mkv
Формат : Matroska
Версия формата : Version 4 / Version 2
Размер файла : 16,9 Гбайт
Продолжительность : 1 ч. 56 м.
Общий поток : 20,8 Мбит/сек
Дата кодирования : UTC 2015-03-03 06:39:54
Программа кодирования : mkvmerge v7.7.0 ('Six Voices') 64bit built on Feb 28 2015 23:39:33
Библиотека кодирования : libebml v1.3.1 + libmatroska v1.4.2
_STATISTICS_WRITING_APP : mkvmerge v7.7.0 ('Six Voices') 64bit built on Feb 28 2015 23:39:33
_STATISTICS_WRITING_DATE_UTC : 2015-03-03 06:39:54
_STATISTICS_TAGS : BPS DURATION NUMBER_OF_FRAMES NUMBER_OF_BYTES
DURATION : 01:56:01.760000000
NUMBER_OF_FRAMES : 652665
NUMBER_OF_BYTES : 668329020
Видео
Идентификатор : 1
Формат : AVC
Формат/Информация : Advanced Video Codec
Профиль формата : High@L4.1
Параметр CABAC формата : Да
Параметр ReFrames формата : 4 кадра
Идентификатор кодека : V_MPEG4/ISO/AVC
Продолжительность : 1 ч. 56 м.
Битрейт : 19,5 Мбит/сек
Ширина : 1920 пикселей
Высота : 1036 пикселей
Соотношение сторон : 1,85:1
Режим частоты кадров : Постоянный
Частота кадров : 23,976 кадра/сек
Цветовое пространство : YUV
Субдискретизация насыщенности : 4:2:0
Битовая глубина : 8 бит
Тип развёртки : Прогрессивная
Бит/(Пиксели*Кадры) : 0.408
Размер потока : 15,8 Гбайт (93%)
Заголовок : BDRip -- STarankov
Библиотека кодирования : x264 core 142 r2431 ac76440
Настройки программы : cabac=1 / ref=4 / deblock=1:-2:-2 / analyse=0x3:0x113 / me=umh / subme=9 / psy=1 / psy_rd=1.00:0.15 / mixed_ref=1 / me_range=32 / chroma_me=1 / trellis=2 / 8x8dct=1 / cqm=0 / deadzone=21,11 / fast_pskip=1 / chroma_qp_offset=-3 / threads=6 / lookahead_threads=1 / sliced_threads=0 / nr=0 / decimate=1 / interlaced=0 / bluray_compat=0 / constrained_intra=0 / bframes=8 / b_pyramid=2 / b_adapt=2 / b_bias=0 / direct=3 / weightb=1 / open_gop=0 / weightp=2 / keyint=230 / keyint_min=23 / scenecut=40 / intra_refresh=0 / rc_lookahead=40 / rc=crf / mbtree=0 / crf=19.5 / qcomp=0.60 / qpmin=0 / qpmax=69 / qpstep=4 / vbv_maxrate=40000 / vbv_bufsize=50000 / crf_max=0.0 / nal_hrd=none / filler=0 / ip_ratio=1.40 / pb_ratio=1.30 / aq=1:1.00
Язык : English
Default : Да
Forced : Нет
DURATION : 01:56:01.663000000
NUMBER_OF_FRAMES : 166913
NUMBER_OF_BYTES : 17300746969
_STATISTICS_WRITING_APP : mkvmerge v7.7.0 ('Six Voices') 64bit built on Feb 28 2015 23:39:33
_STATISTICS_WRITING_DATE_UTC : 2015-03-03 06:39:54
_STATISTICS_TAGS : BPS DURATION NUMBER_OF_FRAMES NUMBER_OF_BYTES
Аудио #1
Идентификатор : 2
Формат : AC-3
Формат/Информация : Audio Coding 3
Расширение режима : CM (complete main)
Параметр Endianness формата : Big
Идентификатор кодека : A_AC3
Продолжительность : 1 ч. 56 м.
Вид битрейта : Постоянный
Битрейт : 192 Кбит/сек
Каналы : 2 канала
Расположение каналов : Front: L R
Частота : 48,0 КГц
Битовая глубина : 16 бит
Метод сжатия : С потерями
Размер потока : 159 Мбайт (1%)
Заголовок : MVO (Спб, 5 канал)
Язык : Russian
Default : Да
Forced : Нет
Аудио #2
Идентификатор : 3
Формат : DTS
Формат/Информация : Digital Theater Systems
Режим : 16
Параметр Endianness формата : Big
Идентификатор кодека : A_DTS
Продолжительность : 1 ч. 56 м.
Вид битрейта : Постоянный
Битрейт : 768 Кбит/сек
Каналы : 1 канал
Расположение каналов : Front: C
Частота : 48,0 КГц
Битовая глубина : 24 бит
Метод сжатия : С потерями
Размер потока : 637 Мбайт (4%)
Заголовок : Original
Язык : English
Default : Нет
Forced : Нет
Текст #1
Идентификатор : 4
Формат : UTF-8
Идентификатор кодека : S_TEXT/UTF8
Идентификатор кодека/Информация : UTF-8 Plain Text
Заголовок : русский (форсир.)
Язык : Russian
Default : Да
Forced : Да
Текст #2
Идентификатор : 5
Формат : UTF-8
Идентификатор кодека : S_TEXT/UTF8
Идентификатор кодека/Информация : UTF-8 Plain Text
Заголовок : русский
Язык : Russian
Default : Нет
Forced : Нет
Текст #3
Идентификатор : 6
Формат : UTF-8
Идентификатор кодека : S_TEXT/UTF8
Идентификатор кодека/Информация : UTF-8 Plain Text
Заголовок : английский
Язык : English
Default : Нет
Forced : Нет
Меню
00:00:00.000 : :Chapter 01
00:09:59.055 : :Chapter 02
00:19:03.099 : :Chapter 03
00:30:17.104 : :Chapter 04
00:38:37.355 : :Chapter 05
00:52:20.051 : :Chapter 06
00:59:33.860 : :Chapter 07
01:12:14.746 : :Chapter 08
01:22:05.586 : :Chapter 09
01:30:29.715 : :Chapter 10
01:40:52.046 : :Chapter 11
01:54:53.011 : :Chapter 12
01:56:01.703 : :Chapter 13

Скриншоты

[Профиль] [ЛС]
Кто просматривает тему:

Форум Тема Автор Размер
Фильмы (HD Rips | 720p, 1080p) 300 спартанцев: Расцвет империи / 300: Rise of an Empire (2014) BDRip 720p | Лицензия sergej644 2.9 GB
Фильмы 2014 года 300 спартанцев: Расцвет империи / 300: Rise of an Empire (Ноам Мурро / Noam Murro) [2014, США, боевик, драма, WEB-DLRip] Dub bot 745 MB
Фильмы (HD Rips | 720p, 1080p) 300 спартанцев: Расцвет империи / 300: Rise of an Empire (Ноам Мурро / Noam Murro) [2014, США, боевик, драма, военный, BDRemux 1080p] Dub + VO (Есарев) + Sub (Rus, Ukr, Eng) + Original Eng + Ukr bot 28.25 GB
Фильмы (HD Rips | 720p, 1080p) 300 спартанцев: Расцвет империи / 300: Rise of an Empire (Ноам Мурро / Noam Murro) [2014, США, боевик, драма, военный, BDRip 1080p] Dub + VO (Есарев) + Sub (Rus, Ukr, Eng)+ Original Eng + Ukr bot 13.74 GB
Фильмы (HD Rips | 720p, 1080p) 300 спартанцев: Расцвет империи / 300: Rise of an Empire (Ноам Мурро / Noam Murro) [2014, США, боевик, драма, военный, BDRip 720p] Dub (CEE) + Ukr (CEE) + VO (Есарев) + Original Eng + Sub Rus, Ukr,... bot 7.9 GB
Фильмы (HD Rips | 720p, 1080p) 300 спартанцев: Расцвет империи / 300: Rise of an Empire (Ноам Мурро / Noam Murro) [2014, США, Боевик, Драма, Военный, Blu-ray disc] Dub (Лицензия) + Sub Rus, Eng + Original Eng + Ukr bot 38.26 GB
Фильмы 2014 года 300 Спартанцев: Расцвет Империи / 300: Rise Of An Empire (Ноам Мурро / Noam Murro) [2014, США, Боевик, Драма, Военный, HDRip] Dub + Original + Sub (Rus, Eng) bot 2.51 GB
Фильмы 2014 года 300 спартанцев: Расцвет империи / 300: Rise of an Empire (Ноам Мурро / Noam Murro) [2014, США, фэнтези, боевик, драма, военный, BDRip-AVC] DUB bot 1.46 GB
Показать сообщения:    

Текущее время: Сегодня 16:53

Часовой пояс: GMT



Вы не можете начинать темы
Вы не можете отвечать на сообщения
Вы не можете редактировать свои сообщения
Вы не можете удалять свои сообщения
Вы не можете голосовать в опросах
Вы не можете прикреплять файлы к сообщениям
Вы не можете скачивать файлы