Рассмеши меня / Humor Me (2017) BDRip 1080p | HDrezka Studio

 
Автор Сообщение

BOSS ®

Пол:

Стаж: 4 года 1 месяц

Сообщений: 12372

Откуда: ODESSA



Награды: 22 (Подробнее)

Top Keeper 4 (Количество: 1) За внесенный вклад в развитие сайта (Количество: 1) Mega Releaser 2 (Количество: 1)
Торрент-статистика

Создавать темы 16-Май-2018 15:57

[Цитировать]

Название: Рассмеши меня
Оригинальное название: Humor Me
Год выпуска: 2017
Жанр: Комедия
Режиссер: Сэм Хоффман
В ролях: Джемейн Клемент, Эллиотт Гулд, Ингрид Майклсон, Мария Диззия, Присцилла Лопес, Джои Злотник, Уилли С. Карпентер, Ле Кланше Ду Рэнд, Розмари Принц, Энни Поттс
О фильме: Нейт не так давно был преуспевающим драматургом, но череда жизненных испытаний сломила героя. От него ушла супруга, забрав с собой сына, а сам Нейт полностью в себе разочаровался. Ему даже пришлось перебраться к отцу, так как он попросту не мог оплачивать аренду. Папа, в отличие от основного действующего персонажа, все неприятности и испытания встречает с юмором. Такое поведение Нейта жутко раздражает, но ему придется мириться с поведением родителя. Отец даже находит работу для вечно хмурого сына, вот только творческая личность не может жить без искусства.

Выпущено: США, Fugitive Films, Spitting Cobra Films
Продолжительность: 01:33:25
Перевод: Профессиональный многоголосый | [HDrezka Studio]
Субтитры: Русские, английские
Качество: BDRip 1080p
Видео: MPEG-4 AVC, 16 Мбит/с, 1920x1036
Аудио #1: Русский (AC3, 2 ch, 192 Кбит/с)
Аудио #2: английский (DTS, 6 ch, 1509 Кбит/с)

Скриншоты

MI

General
Unique ID : 194955454973027939045283143239933417614 (0x92AB0E0B013774C1A5708A0C113CD88E)
Complete name : D:фильмыHumor.Me.2017.1080p.BDRip.mkv
Format : Matroska
Format version : Version 2
File size : 11.6 GiB
Duration : 1h 33mn
Overall bit rate : 17.7 Mbps
Encoded date : UTC 2018-05-15 09:10:17
Writing application : mkvmerge v7.8.0 ('River Man') 32bit built on Apr 3 2015 12:11:22
Writing library : libebml v1.3.1 + libmatroska v1.4.2
DURATION : 01:28:00.212000000
NUMBER_OF_FRAMES : 1518
NUMBER_OF_BYTES : 48586
_STATISTICS_WRITING_APP : mkvmerge v20.0.0 ('I Am The Sun') 64-bit
_STATISTICS_WRITING_DATE_UTC : 2018-04-28 10:19:12
_STATISTICS_TAGS : BPS DURATION NUMBER_OF_FRAMES NUMBER_OF_BYTES
Video
ID : 1
Format : AVC
Format/Info : Advanced Video Codec
Format profile : High@L4.1
Format settings, CABAC : Yes
Format settings, ReFrames : 4 frames
Codec ID : V_MPEG4/ISO/AVC
Duration : 1h 33mn
Bit rate : 16.0 Mbps
Width : 1 920 pixels
Height : 1 036 pixels
Display aspect ratio : 1.85:1
Frame rate mode : Constant
Frame rate : 23.976 fps
Color space : YUV
Chroma subsampling : 4:2:0
Bit depth : 8 bits
Scan type : Progressive
Bits/(Pixel*Frame) : 0.335
Stream size : 10.2 GiB (88%)
Writing library : x264 core 152 r2851 ba24899
Encoding settings : cabac=1 / ref=4 / deblock=1:-3:-3 / analyse=0x3:0x133 / me=umh / subme=10 / psy=1 / psy_rd=1.00:0.00 / mixed_ref=1 / me_range=48 / chroma_me=1 / trellis=2 / 8x8dct=1 / cqm=0 / deadzone=21,11 / fast_pskip=0 / chroma_qp_offset=-2 / threads=12 / lookahead_threads=1 / sliced_threads=0 / nr=0 / decimate=0 / interlaced=0 / bluray_compat=0 / constrained_intra=0 / bframes=6 / b_pyramid=2 / b_adapt=2 / b_bias=0 / direct=3 / weightb=0 / open_gop=0 / weightp=2 / keyint=230 / keyint_min=22 / scenecut=40 / intra_refresh=0 / rc_lookahead=60 / rc=2pass / mbtree=1 / bitrate=16000 / ratetol=1.0 / qcomp=0.60 / qpmin=0 / qpmax=69 / qpstep=4 / cplxblur=20.0 / qblur=0.5 / vbv_maxrate=50000 / vbv_bufsize=50000 / nal_hrd=none / filler=0 / ip_ratio=1.40 / aq=1:1.00
Language : English
Default : Yes
Forced : No
Audio #1
ID : 2
Format : AC-3
Format/Info : Audio Coding 3
Mode extension : CM (complete main)
Format settings, Endianness : Big
Codec ID : A_AC3
Duration : 1h 33mn
Bit rate mode : Constant
Bit rate : 192 Kbps
Channel(s) : 2 channels
Channel positions : Front: L R
Sampling rate : 48.0 KHz
Bit depth : 16 bits
Compression mode : Lossy
Stream size : 128 MiB (1%)
Language : Russian
Default : Yes
Forced : Yes
Audio #2
ID : 3
Format : DTS
Format/Info : Digital Theater Systems
Mode : 16
Format settings, Endianness : Big
Codec ID : A_DTS
Duration : 1h 33mn
Bit rate mode : Constant
Bit rate : 1 509 Kbps
Channel(s) : 6 channels
Channel positions : Front: L C R, Side: L R, LFE
Sampling rate : 48.0 KHz
Bit depth : 24 bits
Compression mode : Lossy
Stream size : 1 008 MiB (9%)
Language : English
Default : No
Forced : No
Text #1
ID : 4
Format : UTF-8
Codec ID : S_TEXT/UTF8
Codec ID/Info : UTF-8 Plain Text
Language : Russian
Default : No
Forced : No
Text #2
ID : 5
Format : UTF-8
Codec ID : S_TEXT/UTF8
Codec ID/Info : UTF-8 Plain Text
Language : English
Default : No
Forced : No
[Профиль] [ЛС]
Показать сообщения:    

Текущее время: Сегодня 17:43

Часовой пояс: GMT



Вы не можете начинать темы
Вы не можете отвечать на сообщения
Вы не можете редактировать свои сообщения
Вы не можете удалять свои сообщения
Вы не можете голосовать в опросах
Вы не можете прикреплять файлы к сообщениям
Вы не можете скачивать файлы