Рассказы А.П.Чехова -4 серии (Беззаконие, Сын прокурора спасает короля, Человек в пенсне, Белолобый) (Наталья Мальгина, Оксана Холодова, Павел Сухих, Сергей Серегин) [2010, Россия, Рисованный мультфильм, WEBRip]

 
Автор Сообщение

TorrentFilm ®

Пол:

Стаж: 2 года

Сообщений: 7741



Награды: Нет

Торрент-статистика

Создавать темы 11-Янв-2016 00:08

[Цитировать]

Рассказы А.П.Чехова 4 серии (Беззаконие, Сын прокурора спасает короля, Человек в пенсне, Белолобый)
Страна: Россия
Жанр: Рисованный мультфильм
Продолжительность:00:08:35+00:07:57+00:11:12+00:08:20
Год выпуска: 2010
Русские субтитры: нет
Режиссёр: Наталья Мальгина, Оксана Холодова, Павел Сухих, Сергей Серегин
Роли озвучивали: А. Колган, А. Покровская,В.Хрящева,А.Чудко,И.Клабукова,М.Чернавин
Описание: Все мультики из цикла Рассказы Чехова – это серия короткометражек, снятых по мотивам произведений знаменитого русского писателя Антона Павловича Чехова. Весь цикл был снят в 2010 году и насчитывает четыре коротких мультфильма, снятых совершенно разными командами аниматоров и режиссёров. Каждый из мультиков выполнен при помощи своей неповторимой техники и в него вложен уникальный взгляд режиссёра на творчество писателя. Такой подход к созданию серии показывает, насколько разнообразным было творчество Чехова. Среди мультиков цикла можно увидеть и драматическую зарисовку про собачку по кличке Белолобый, и поучительный сюжет мультика про Сына прокурора, и отличную бессметную комедию в мультиках Беззаконие и Человек в пенсне. То, что объединяет все части серии Рассказы Чехова, так это то, что все мультики подходят для людей всех возрастов, точно так же, как и рассказы Антона Павловича.
1. Беззаконие - Тяжёлый день коллежского асессора Эраста Семёновича Мигуева подходит к концу, и он тяжёлой походкой идёт к себе домой, где его ждёт жена и отдых. Но присев на крыльцо после долгой дороги, он замечает, что рядом с ним лежит подозрительный свёрток, внутри которого он обнаруживает младенца.
2. Сын прокурора спасает короля - Евгений Петрович - добропорядочный прокурор, который весь день занимается составлением обвинений для преступников и государственным делами и приходит домой очень уставшим. Но на этот раз ему не удастся отдохнуть после работы, ведь и дома его ждёт серьёзный разговор с его сыном Серёжей, которого...
3. Человек в пенсне - Двух современных подростков отправляют на отдых в деревню их родители. Но что в глухой деревне делать современному подростку без телевидения и Интернета. Поэтому ребята считают, что это адназначна атстойное место, где не может быть ничего интересного.
4. Белолобый - Март выдался особенно холодным, снежным и тяжёлым как для местных деревенских жителей, так и для жителей леса. Старая и слабая здоровьем волчиха жила неподалёку от деревни и помимо себя ей нужно было выкармливать ещё троих волчат. Но из-за старости и слабости питаться ей приходилось только падалью...
Доп. информация: «Губерния», «Мастер-Фильм»
Раздача группы:
Качество: WEBRip
Формат: AVI
Видео: 640x352 (1.82:1), 25 fps, XviD MPEG-4 ~1095 kbps avg, 0.19 bit/pixel
Аудио: 48 kHz, AC3 Dolby Digital, 2/0 (L,R) ch, ~192.00 kbps avg - 1 серия
Аудио: 48 kHz, MPEG Layer 3, 2 ch, ~128.00 kbps avg - 2-4серии
Субтитры: нет

Подробные технические данные

1 серияFormat : AVIFormat/Info : Audio Video InterleaveFile size : 79.7 MiBDuration : 8mn 35sOverall bit rate : 1 297 KbpsWriting application : VirtualDubModRus 1.5.10.2 (build 2542/release)Writing library : VirtualDubMod build 2542/release
VideoID : 0Format : MPEG-4 VisualFormat profile : Advanced Simple@L5Format settings, BVOP : 2Format settings, QPel : NoFormat settings, GMC : No warppointsFormat settings, Matrix : CustomCodec ID : XVIDCodec ID/Hint : XviDDuration : 8mn 35sBit rate : 1 095 KbpsWidth : 640 pixelsHeight : 352 pixelsDisplay aspect ratio : 5:4Original display aspect ratio : 16:9Frame rate : 25.000 fpsColor space : YUVChroma subsampling : 4:2:0Bit depth : 8 bitsScan type : ProgressiveCompression mode : LossyBits/(Pixel*Frame) : 0.194Stream size : 67.3 MiB (84%)Writing library : XviD 65
AudioID : 1Format : AC-3Format/Info : Audio Coding 3Mode extension : CM (complete main)Format settings, Endianness : BigCodec ID : 2000Duration : 8mn 35sBit rate mode : ConstantBit rate : 192 KbpsChannel(s) : 2 channelsChannel positions : Front: L RSampling rate : 48.0 KHzBit depth : 16 bitsCompression mode : LossyStream size : 11.8 MiB (15%)Alignment : Split accross interleavesInterleave, duration : 40 ms (1.00 video frame)Interleave, preload duration : 500 ms
2 серияFormat : AVIFormat/Info : Audio Video InterleaveFile size : 70.6 MiBDuration : 7mn 57sOverall bit rate : 1 239 KbpsWriting application : VirtualDubMod 1.5.10.3 | www.virtualdub-fr.org || (build 2550/release)Writing library : VirtualDubMod build 2550/release
VideoID : 0Format : MPEG-4 VisualFormat profile : Advanced Simple@L5Format settings, BVOP : 2Format settings, QPel : NoFormat settings, GMC : No warppointsFormat settings, Matrix : Default (H.263)Codec ID : XVIDCodec ID/Hint : XviDDuration : 7mn 57sBit rate : 1 101 KbpsWidth : 640 pixelsHeight : 352 pixelsDisplay aspect ratio : 16:9Frame rate : 25.000 fpsColor space : YUVChroma subsampling : 4:2:0Bit depth : 8 bitsScan type : ProgressiveCompression mode : LossyBits/(Pixel*Frame) : 0.196Stream size : 62.8 MiB (89%)Writing library : XviD 1.2.1 (UTC 2008-12-04)
AudioID : 1Format : MPEG AudioFormat version : Version 1Format profile : Layer 3Codec ID : 55Codec ID/Hint : MP3Duration : 7mn 57sBit rate mode : ConstantBit rate : 128 KbpsChannel(s) : 2 channelsSampling rate : 48.0 KHzCompression mode : LossyStream size : 7.29 MiB (10%)Alignment : Aligned on interleavesInterleave, duration : 40 ms (1.00 video frame)Interleave, preload duration : 504 msWriting library : LAME3.98rEncoding settings : -m s -V 4 -q 0 -lowpass 17 -b 128
3 серияFormat : AVIFormat/Info : Audio Video InterleaveFile size : 90.8 MiBDuration : 11mn 12sOverall bit rate : 1 133 KbpsWriting application : VirtualDubMod 1.5.10.3 | www.virtualdub-fr.org || (build 2550/release)Writing library : VirtualDubMod build 2550/release
VideoID : 0Format : MPEG-4 VisualFormat profile : Advanced Simple@L5Format settings, BVOP : 2Format settings, QPel : NoFormat settings, GMC : No warppointsFormat settings, Matrix : Default (H.263)Codec ID : XVIDCodec ID/Hint : XviDDuration : 11mn 12sBit rate : 995 KbpsWidth : 640 pixelsHeight : 352 pixelsDisplay aspect ratio : 16:9Frame rate : 25.000 fpsColor space : YUVChroma subsampling : 4:2:0Bit depth : 8 bitsScan type : ProgressiveCompression mode : LossyBits/(Pixel*Frame) : 0.177Stream size : 79.8 MiB (88%)Writing library : XviD 1.2.1 (UTC 2008-12-04)
AudioID : 1Format : MPEG AudioFormat version : Version 1Format profile : Layer 3Codec ID : 55Codec ID/Hint : MP3Duration : 11mn 12sBit rate mode : ConstantBit rate : 128 KbpsChannel(s) : 2 channelsSampling rate : 48.0 KHzCompression mode : LossyStream size : 10.3 MiB (11%)Alignment : Aligned on interleavesInterleave, duration : 40 ms (1.00 video frame)Interleave, preload duration : 504 msWriting library : LAME3.98rEncoding settings : -m s -V 4 -q 0 -lowpass 17 -b 128
4 серияFormat : AVIFormat/Info : Audio Video InterleaveFile size : 67.9 MiBDuration : 8mn 20sOverall bit rate : 1 139 KbpsWriting application : VirtualDubMod 1.5.10.3 | www.virtualdub-fr.org || (build 2550/release)Writing library : VirtualDubMod build 2550/release
VideoID : 0Format : MPEG-4 VisualFormat profile : Advanced Simple@L5Format settings, BVOP : 2Format settings, QPel : NoFormat settings, GMC : No warppointsFormat settings, Matrix : Default (H.263)Codec ID : XVIDCodec ID/Hint : XviDDuration : 8mn 20sBit rate : 1 002 KbpsWidth : 640 pixelsHeight : 352 pixelsDisplay aspect ratio : 16:9Frame rate : 25.000 fpsColor space : YUVChroma subsampling : 4:2:0Bit depth : 8 bitsScan type : ProgressiveCompression mode : LossyBits/(Pixel*Frame) : 0.178Stream size : 59.7 MiB (88%)Writing library : XviD 1.2.1 (UTC 2008-12-04)
AudioID : 1Format : MPEG AudioFormat version : Version 1Format profile : Layer 3Codec ID : 55Codec ID/Hint : MP3Duration : 8mn 18sBit rate mode : ConstantBit rate : 128 KbpsChannel(s) : 2 channelsSampling rate : 48.0 KHzCompression mode : LossyStream size : 7.60 MiB (11%)Alignment : Aligned on interleavesInterleave, duration : 40 ms (1.01 video frame)Interleave, preload duration : 504 msWriting library : LAME3.98rEncoding settings : -m s -V 4 -q 0 -lowpass 17 -b 128

СкриншотыБеззаконие

Сын прокурора спасает короля

Человек в пенсне

Белолобый

[Профиль] [ЛС]
Показать сообщения:    

Текущее время: Сегодня 14:10

Часовой пояс: GMT



Вы не можете начинать темы
Вы не можете отвечать на сообщения
Вы не можете редактировать свои сообщения
Вы не можете удалять свои сообщения
Вы не можете голосовать в опросах
Вы не можете прикреплять файлы к сообщениям
Вы не можете скачивать файлы