Распутное детство / Maladolescenza (1977) DVDRip от Шкипер | P

 
Автор Сообщение

Шкипер ®

Пол:

Стаж: 1 год 7 месяцев

Сообщений: 52



Награды: Нет

Торрент-статистика

Создавать темы 21-Июл-2016 09:14

[Цитировать]

Информация о фильме
Название: Распутное детство
Оригинальное название: Maladolescenza
Год выхода: 1977
Жанр: Эротика, драма
Режиссер: Пьер Джузеппе Мурджа
В ролях: Лара Вендель, Ева Йонеско, Мартин Лоб
О фильме: Лес, его таинственными местами: развалинами, пещерами, водопадом, озером, становится местом постоянных встреч 12-летний Лауры с несколько чудаковатым мальчиком Фабрицио, который испытывает серьезные проблемы кризиса переходного возраста. Первая близость, и ей кажется, что она самая счастливая на белом свете и их совместное счастье неразрушимо. Однако любовь, подчеркнутая сексом, приносит плоды проблем и изрядную долю разочарования.Мальчик, в буквальном смысле слова, начинает измываться над несчастной Лаурой, над ее привязанностью и ее чувствами. Он демонстративно унижает ее. Игра принимает жесткий и даже жестокий характер. Лаура оказывается поставлена в положение рабыни, безмерно любящей своего повелителя. И в этом спектакле Фабрицио активно подыгрывает Сильвия, столь же юная как и Лаура, но более дерзкая и нахальная. Обеим девушкам нравится Фабрицио. Напряженность между тремя персонажами любовного треугольника возрастает и достигнув пика — разрывается трагедией.

Страна: Италия, Германия (ФРГ)
Студия: Cinema 23 Film, Monarex, Seven Star Film
Продолжительность: 01:30:59
Перевод: Профессиональный (одноголосый, закадровый)
Файл
Кодек: XviD
Качество: DVDRip
Видео: 656x352 (1.85:1), 25 fps, XviD build 73 ~2094 kbps avg, 0.36 bit/pixel
Звук: 48 kHz, AC3 Dolby Digital, 2/0 (L,R) ch, ~192 kbps
Субтитры: Отсутствуют
Семпл

MI

General
Complete name : D:Изготовление рипаRasputnoe detstvo_dvdrip by shkiper.avi
Format : AVI
Format/Info : Audio Video Interleave
File size : 1.46 GiB
Duration : 1h 30mn
Overall bit rate : 2 296 Kbps
Writing application : VirtualDubMod 1.5.10.3 | www.virtualdub-fr.org || (build 2550/release)
Writing library : VirtualDubMod build 2550/release
Video
ID : 0
Format : MPEG-4 Visual
Format profile : Advanced Simple@L5
Format settings, BVOP : 1
Format settings, QPel : No
Format settings, GMC : No warppoints
Format settings, Matrix : Custom
Codec ID : XVID
Codec ID/Hint : XviD
Duration : 1h 30mn
Bit rate : 2 095 Kbps
Width : 656 pixels
Height : 352 pixels
Display aspect ratio : 1.85:1
Frame rate : 25.000 fps
Color space : YUV
Chroma subsampling : 4:2:0
Bit depth : 8 bits
Scan type : Progressive
Compression mode : Lossy
Bits/(Pixel*Frame) : 0.363
Stream size : 1.33 GiB (91%)
Writing library : XviD 73
Audio
ID : 1
Format : AC-3
Format/Info : Audio Coding 3
Mode extension : CM (complete main)
Format settings, Endianness : Big
Codec ID : 2000
Duration : 1h 30mn
Bit rate mode : Constant
Bit rate : 192 Kbps
Channel(s) : 2 channels
Channel positions : Front: L R
Sampling rate : 48.0 KHz
Frame rate : 31.250 fps (1536 spf)
Compression mode : Lossy
Stream size : 125 MiB (8%)
Alignment : Split accross interleaves
Interleave, duration : 40 ms (1.00 video frame)
Interleave, preload duratio : 500 ms

Скриншоты

Релиз от:
[Профиль] [ЛС]
Показать сообщения:    

Текущее время: Сегодня 12:34

Часовой пояс: GMT



Вы не можете начинать темы
Вы не можете отвечать на сообщения
Вы не можете редактировать свои сообщения
Вы не можете удалять свои сообщения
Вы не можете голосовать в опросах
Вы не можете прикреплять файлы к сообщениям
Вы не можете скачивать файлы