Распутин (2013) BDRip 1080p

 
Автор Сообщение

sergej644 ®

Пол:

Стаж: 4 года 11 месяцев

Сообщений: 6046

Откуда: Soviet Union



Награды: Нет

Торрент-статистика

Создавать темы 27-Янв-2015 21:50

[Цитировать]

Информация о фильме
Оригинальное название: Распутин
Год выпуска: 2013
Жанр: Драма, биография, история
Выпущено: Россия, B-Tween, ВГТРК
Режиссер: Жозе Дойанн, Ираклий Квирикадзе
В ролях: Жерар Депардьё, Фанни Ардан, Владимир Машков, Анна Михалкова, Филипп Янковский, Ирина Алферова, Данила Козловский, Юрий Колокольников, Ксения Раппопорт, Константин Хабенский
О фильме: Начало ХХ века, Европа охвачена войной, Российская империя на краю пропасти. Внезапное появление загадочного Григория Распутина в царских покоях вызывает волну негодования при дворе. Сибирский целитель облегчает страдания неизлечимо больного наследника престола, проповедует и творит чудеса. Императрица уверена, что всё не случайно и Григорий — божий человек, спаситель, посланный свыше. Ее уверенность разделяют далеко не все. Вокруг «святого беса» плетутся заговоры, его мистическая власть над царской семьей и нежная дружба с императрицей раздражают слишком многих. Россия, монархия и Распутин в эпицентре приближающейся катастрофы.
Качество: BDRip (1080p)
Видео: MPEG-4 AVC, 9101 Кбит/с, 1920x1036
Аудио: Русский (AC3, 6 ch, 640 Кбит/с), (DTS, 6 ch, 1510 Кбит/с)
Размер: 6.52 ГБ
Продолжительность: 01:23:02
Язык: Русский

Внимание!!!

Видео на исходнике сделано очень некачественно. На изображении имеются артифакты и пикселизация.

MI

Общее
Уникальный идентификатор : 205702352347224417812682217723504316433 (0x9AC0D4FE0F3FD2F5B6DD945D98C35011)
Полное имя : D:RasPUTIN.2013.1080p.CMEGRoup.mkv
Формат : Matroska
Версия формата : Version 2
Размер файла : 6,52 Гбайт
Продолжительность : 1 ч. 23 м.
Общий поток : 11,2 Мбит/сек
Название фильма : CMEGRoup
Дата кодирования : UTC 2013-12-16 11:25:55
Программа кодирования : mkvmerge v6.3.0 ('You can't stop me!') built on Jun 28 2013 20:09:41
Библиотека кодирования : libebml v1.3.0 + libmatroska v1.4.0
Видео
Идентификатор : 1
Формат : AVC
Формат/Информация : Advanced Video Codec
Профиль формата : High@L4.1
Параметр CABAC формата : Да
Параметр ReFrames формата : 4 кадра
Идентификатор кодека : V_MPEG4/ISO/AVC
Продолжительность : 1 ч. 23 м.
Битрейт : 9101 Кбит/сек
Ширина : 1920 пикселей
Высота : 1036 пикселей
Соотношение сторон : 1,85:1
Режим частоты кадров : Постоянный
Частота кадров : 25,000 кадров/сек
Цветовое пространство : YUV
Субдискретизация насыщенности : 4:2:0
Битовая глубина : 8 бит
Тип развёртки : Прогрессивная
Бит/(Пиксели*Кадры) : 0.183
Размер потока : 5,14 Гбайт (79%)
Библиотека кодирования : x264 core 138 r2358 9e941d1
Настройки программы : cabac=1 / ref=4 / deblock=1:-3:-3 / analyse=0x3:0x113 / me=umh / subme=11 / psy=1 / psy_rd=1.00:0.00 / mixed_ref=1 / me_range=32 / chroma_me=1 / trellis=2 / 8x8dct=1 / cqm=0 / deadzone=21,11 / fast_pskip=1 / chroma_qp_offset=-2 / threads=6 / lookahead_threads=1 / sliced_threads=0 / nr=0 / decimate=1 / interlaced=0 / bluray_compat=0 / constrained_intra=0 / bframes=5 / b_pyramid=2 / b_adapt=1 / b_bias=0 / direct=2 / weightb=1 / open_gop=0 / weightp=2 / keyint=250 / keyint_min=25 / scenecut=40 / intra_refresh=0 / rc_lookahead=40 / rc=2pass / mbtree=1 / bitrate=9101 / ratetol=1.0 / qcomp=0.60 / qpmin=0 / qpmax=69 / qpstep=4 / cplxblur=20.0 / qblur=0.5 / vbv_maxrate=62500 / vbv_bufsize=78125 / nal_hrd=none / ip_ratio=1.40 / aq=1:1.00 / zones=117977,124559,q=40
Язык : English
Default : Да
Forced : Нет
Аудио #1
Идентификатор : 2
Формат : DTS
Формат/Информация : Digital Theater Systems
Режим : 16
Параметр Endianness формата : Big
Идентификатор кодека : A_DTS
Продолжительность : 1 ч. 23 м.
Вид битрейта : Постоянный
Битрейт : 1509 Кбит/сек
Каналы : 6 каналов
Расположение каналов : Front: L C R, Side: L R, LFE
Частота : 48,0 КГц
Битовая глубина : 16 бит
Метод сжатия : С потерями
Размер потока : 896 Мбайт (13%)
Default : Да
Forced : Нет
Аудио #2
Идентификатор : 3
Формат : AC-3
Формат/Информация : Audio Coding 3
Расширение режима : CM (complete main)
Параметр Endianness формата : Big
Идентификатор кодека : A_AC3
Продолжительность : 1 ч. 23 м.
Вид битрейта : Постоянный
Битрейт : 640 Кбит/сек
Каналы : 6 каналов
Расположение каналов : Front: L C R, Side: L R, LFE
Частота : 48,0 КГц
Битовая глубина : 16 бит
Метод сжатия : С потерями
Размер потока : 380 Мбайт (6%)
Язык : Russian
Default : Нет
Forced : Нет

Скриншоты

--
[Профиль] [ЛС]
Показать сообщения:    

Текущее время: Сегодня 19:38

Часовой пояс: GMT



Вы не можете начинать темы
Вы не можете отвечать на сообщения
Вы не можете редактировать свои сообщения
Вы не можете удалять свои сообщения
Вы не можете голосовать в опросах
Вы не можете прикреплять файлы к сообщениям
Вы не можете скачивать файлы