Расплата / The Debt (Джон Мэдден / John Madden) [2010, США, триллер, драма, HDTVRip] MVO (1 канал)

 
Автор Сообщение

TorrentFilm ®

Пол:

Стаж: 1 год 11 месяцев

Сообщений: 7741



Награды: Нет

Торрент-статистика

Создавать темы 24-Фев-2015 00:01

[Цитировать]

Расплата / The Debt
Страна: США
Жанр: триллер, драма
Год выпуска: 2010
Продолжительность: 01:41:58
Перевод: Профессиональный (многоголосый закадровый) 1 канал
Cубтитры: нет
Оригинальная аудиодорожка: нет
Режиссер: Джон Мэдден / John Madden
В ролях: Хелен Миррен, Сэм Уортингтон, Джессика Честейн, Том Уилкинсон, Кирен Хайдз, Роми Абулафиа, Томер Бен Дэвид, Охев Бен Дэвид, Джонатан Узил, Эли Зохар, Мартон Чокаш, Еспер Кристенсен
Описание: В фильме рассказывается о трёх молодых агентах «Моссада» на секретном задании, которые в 1965 году похищают и убивают известного нацистского преступника. Тридцать лет спустя на Украине объявляется человек, обвинённый в нацизме, и одному из бывших агентов приходится вернуться к своей деятельности, чтобы докопаться до правды.
Доп. информация: Рип с канала Первый HD. Из видеоряда удален логотип канала, остались послерекламные вставки с названием фильма. HDTV имеет иное наполнение кадра, чем BD:

Сравнение с BD

BD..................................HDTV


Сэмпл: http://multi-up.com/1033895
Качество видео: HDTVRip
Формат видео: AVI
Видео: MPEG4, XviD, 720x400 (16/9), 25.000 fps, 1 837 Kbps (0.255 bit/pixel)
Аудио: AC-3, 48.0 KHz, 2 ch, 192 Kbps, CBR

MediaInfo

Общее
Полное имя : K:\Расплата.avi
Формат : AVI
Формат/Информация : Audio Video Interleave
Размер файла : 1,45 Гбайт
Продолжительность : 1 ч. 41 м.
Общий поток : 2039 Кбит/сек
Название фильма : Расплата / The Debt (2010)
Программа кодирования : VirtualDubMod 1.5.10.2 (build 2540/release)
Библиотека кодирования : VirtualDubMod build 2540/release
Правообладатель : miha2154
Видео
Идентификатор : 0
Формат : MPEG-4 Visual
Профиль формата : Advanced Simple@L5
Параметр BVOP формата : 1
Параметр QPel формата : Нет
Параметр GMC формата : Без точки перехода
Параметр матрицы формата : Выборочная
Идентификатор кодека : XVID
Идентификатор кодека/Подсказка : XviD
Продолжительность : 1 ч. 41 м.
Битрейт : 1837 Кбит/сек
Ширина : 720 пикселей
Высота : 400 пикселей
Соотношение сторон : 16:9
Частота кадров : 25,000 кадров/сек
Цветовое пространство : YUV
Субдискретизация насыщенности : 4:2:0
Битовая глубина : 8 бит
Тип развёртки : Прогрессивная
Метод сжатия : С потерями
Бит/(Пиксели*Кадры) : 0.255
Размер потока : 1,31 Гбайт (90%)
Библиотека кодирования : XviD 65
Аудио
Идентификатор : 1
Формат : AC-3
Формат/Информация : Audio Coding 3
Расширение режима : CM (complete main)
Параметр Endianness формата : Big
Идентификатор кодека : 2000
Продолжительность : 1 ч. 41 м.
Вид битрейта : Постоянный
Битрейт : 192 Кбит/сек
Каналы : 2 канала
Расположение каналов : Front: L R
Частота : 48,0 КГц
Битовая глубина : 16 бит
Метод сжатия : С потерями
Размер потока : 140 Мбайт (9%)
Выравнивание : Разделение по промежуткам
Продолжительность промежутка : 40 мс. (1,00 видеокадр)
Время предзагрузки промежутка : 500 мс.
Заголовок : Профессиональный (многоголосый закадровый) 1 канал

Скриншоты


[Профиль] [ЛС]

Создавать темы 06-Авг-2015 22:42 (спустя 5 месяцев 10 дней)

Топик был перенесен из форума Фильмы до 2014 года в форум Фильмы до 2012 года
sergej644
 

Создавать темы 12-Июн-2016 07:54 (спустя 1 год 3 месяца)

Топик был перенесен из форума Фильмы 2011 года в форум Фильмы 2010 года
Russian Mafia
 
Показать сообщения:    

Текущее время: Сегодня 22:31

Часовой пояс: GMT



Вы не можете начинать темы
Вы не можете отвечать на сообщения
Вы не можете редактировать свои сообщения
Вы не можете удалять свои сообщения
Вы не можете голосовать в опросах
Вы не можете прикреплять файлы к сообщениям
Вы не можете скачивать файлы