Расписание Кровью / Blood Done Sign My Name (Джеб Стюарт / Jeb Stuart) [2010, США, Драма, DVDRip] VO + Sub Rus + Original Eng

 
Автор Сообщение

painkiller ®

Стаж: 2 года 3 месяца

Сообщений: 582



Награды: Нет

Торрент-статистика

Создавать темы 14-Авг-2014 09:11

[Цитировать]

Расписание Кровью / Blood Done Sign My Name
Страна: США
Жанр: Драма
Год выпуска: 2010
Продолжительность: 02:08:15
Перевод: Одноголосый закадровый
Cубтитры: русские
Оригинальная аудиодорожка: английский
Режиссер: Джеб Стюарт / Jeb Stuart
В ролях: Майкл Рукер, Ли Норрис, Рик Шродер, Омар Бенсон Миллер, Лила Рошон, Ник Сирси, Гэтлин Гриффит, Рода Гриффис, Дэррин Девитт Хенсон, Нэйт Паркер
Описание: Реальная история начала 70-х прошлого столетия. Генри Мэррой был бессмысленно застрелен белым бизнесменом из пригорода Оксфорда. Убийство чернокожего ветерана вьетнамской войны в маленьком городке Северной Каролины вызвало вспышку демонстраций протеста, сопровождавшихся столкновениями. Посреди нарастающих беспорядков и хаоса, местный учитель Паркер и недавно прибывший проповедник Шродер отважатся ценой всего самого ценного, что есть в их жизни встать на защиту правосудия и попытаться изменить жестокое наследие прошлого.
Доп. информация: Фильм взят отсюда http://torrentfilm.net/forum/viewtopic.php?t=3372447
Сэмпл: http://multi-up.com/983397
Качество видео: DVDRip
Формат видео: AVI
Видео: 640x272 (2.35:1), 23.976 fps, XviD build 50 ~1375 kbps avg, 0.33 bit/pixel
Аудио 1: 48 kHz, MPEG Layer 3, 2 ch, ~96.00 kbps avg(Русский)
Аудио 2: 48 kHz, MPEG Layer 3, 2 ch, ~109.70 kbps avg(Английский)
Формат субтитров: softsub (SRT)
Доп. информация о субтитрах: Русские внешние (notabenoid.com) - RabChristov, Postman, dima360, Valkiriya, Alezandr, alexey_z, sanchess84, Helen26, vito22

MediaInfo

Общее
Полное имя : F:\С моей озвучкой\Расписание Кровью\СД 1\Расписание Кровью 1.avi
Формат : AVI
Формат/Информация : Audio Video Interleave
Размер файла : 745 Мбайт
Продолжительность : 1 ч. 5 м.
Режим общего битрейта : Переменный
Общий поток : 1600 Кбит/сек
Программа кодирования : VirtualDubModRus 1.5.10.2 (build 2542/release)
Библиотека кодирования : VirtualDubMod build 2542/release
Видео
Идентификатор : 0
Формат : MPEG-4 Visual
Профиль формата : Advanced Simple@L5
Параметр BVOP формата : 2
Параметр QPel формата : Нет
Параметр GMC формата : Без точки перехода
Параметр матрицы формата : Default (H.263)
Идентификатор кодека : XVID
Идентификатор кодека/Подсказка : XviD
Продолжительность : 1 ч. 5 м.
Битрейт : 1377 Кбит/сек
Ширина : 640 пикселей
Высота : 272 пикселя
Соотношение сторон : 2,35:1
Частота кадров : 23,976 кадра/сек
Цветовое пространство : YUV
Субдискретизация насыщенности : 4:2:0
Битовая глубина : 8 бит
Тип развёртки : Прогрессивная
Метод сжатия : С потерями
Бит/(Пиксели*Кадры) : 0.330
Размер потока : 641 Мбайт (86%)
Библиотека кодирования : XviD 1.2.1 (UTC 2008-12-04)
Аудио #1
Идентификатор : 1
Формат : MPEG Audio
Версия формата : Version 1
Профиль формата : Layer 3
Режим : Joint stereo
Расширение режима : MS Stereo
Идентификатор кодека : 55
Идентификатор кодека/Подсказка : MP3
Продолжительность : 1 ч. 4 м.
Вид битрейта : Постоянный
Битрейт : 96,0 Кбит/сек
Каналы : 2 канала
Частота : 48,0 КГц
Метод сжатия : С потерями
Размер потока : 44,6 Мбайт (6%)
Выравнивание : Соединение по промежуткам
Продолжительность промежутка : 42 мс. (1,00 видеокадр)
Время предзагрузки промежутка : 504 мс.
Библиотека кодирования : LAME3.98
Аудио #2
Идентификатор : 2
Формат : MPEG Audio
Версия формата : Version 1
Профиль формата : Layer 3
Режим : Joint stereo
Расширение режима : MS Stereo
Идентификатор кодека : 55
Идентификатор кодека/Подсказка : MP3
Продолжительность : 1 ч. 5 м.
Вид битрейта : Переменный
Битрейт : 113 Кбит/сек
Минимальный битрейт : 32,0 Кбит/сек
Каналы : 2 канала
Частота : 48,0 КГц
Метод сжатия : С потерями
Размер потока : 51,1 Мбайт (7%)
Выравнивание : Соединение по промежуткам
Продолжительность промежутка : 24 мс. (0,58 видеокадр)
Время предзагрузки промежутка : 525 мс.
Библиотека кодирования : LAME3.98r
Настройки программы : -m j -V 5 -q 0 -lowpass 16.5 --vbr-new -b 32-m j -V 5 -q 0 -lowpass 16.5 --vbr-new -b 32-m j -V 5 -q 0 -lowpass 16.5 --vbr-new -b 32

Скриншоты

[Профиль] [ЛС]

Создавать темы 06-Авг-2015 23:17 (спустя 11 месяцев 23 дня)

Топик был перенесен из форума Фильмы до 2014 года в форум Фильмы до 2012 года
sergej644
 

Создавать темы 12-Июн-2016 07:54 (спустя 1 год 9 месяцев)

Топик был перенесен из форума Фильмы 2011 года в форум Фильмы 2010 года
Russian Mafia
 
Показать сообщения:    

Текущее время: Сегодня 07:15

Часовой пояс: GMT



Вы не можете начинать темы
Вы не можете отвечать на сообщения
Вы не можете редактировать свои сообщения
Вы не можете удалять свои сообщения
Вы не можете голосовать в опросах
Вы не можете прикреплять файлы к сообщениям
Вы не можете скачивать файлы