Раскрашенная кожа 2 в 3Д / Painted Skin: The Resurrection / Hua Pi 2 3D (Вуершан / Wuershan) [2012, Фэнтези, боевик, триллер, драма, BDrip-AVC] Half OverUnder / Вертикальная анаморфная стереопара

 
Автор Сообщение

TorrentFilm ®

Пол:

Стаж: 2 года

Сообщений: 7741



Награды: Нет

Торрент-статистика

Создавать темы 02-Янв-2016 00:00

[Цитировать]

Раскрашенная кожа 2
Painted Skin: The Resurrection / Hua Pi 2
Год выпуска: 2012
Страна: Китай
Жанр: Фэнтези, боевик, триллер, драма
Продолжительность: 02:11:32
Перевод: Любительский (двухголосый) den904 и DeadSno
Русские субтитры: есть
Режиссер: Вуершан / Wuershan
В ролях:
Чжоу Сюнь - Сяо Вэй, демон Лиса
Чэнь Кунь - Генерал Хо Синь
Чжао Вэй - Принцесса Цзин
Янг Ми - птичка Чеа
Фэн-Шаофенг - целитель Пан
Фэй Сян - шаман Тянь Ланг
Чэнь Тинцзя - Королева Тянь Ланг
Описание:
Чтобы стать смертным демон должен прожить на земле несколько сот лет, но и этого недостаточно, чтобы ощутить весь спектр человеческих эмоций и подлинную экзистенциальную грусть. Для получения этих бонусов демон должен найти человека, готового пожертвовать собственными чувствами и собственной бессмертной душой.Релиз группы:

Проверено на встроенном плейере ТВ LG 42LW4500
Качество: BDrip
Контейнер: MKV
Формат 3D: Anamorph OverUnder / Вертикальная анаморфная стереопара
Видео кодек: x264
Аудио кодек: МР3
Видео: AVC / 23,976 fps / 1920х1080p / 8848 Kbps
Аудио: Русский / 48 KHz / MPEG layer 3 / 128 kbps
ссылка на Китайский / AC3 / 48 KHz / 5.1 ch / 640 Kbps (отдельно на Narod.Ru)

Скриншоты

MediaInfo

Общее
Уникальный идентификатор : 250267302308263877390305820953949592343 (0xBC47BAAA567F7896AC3FE7E340815B17)
Полное имя : G:\MVCTOAVI.EXE\кожа\PaintedSkin.TheResurrection.3D.2012.BD3DRip.Half.OU.x264.AC3.Rus.3D-RuGroup.mkv
Формат : Matroska
Версия формата : Version 2
Размер файла : 8,41 Гбайт
Продолжительность : 2 ч. 11 м.
Общий поток : 9158 Кбит/сек
Название фильма : rip by StarStranger release 3D-RuGroup
Дата кодирования : UTC 2012-10-19 14:58:52
Программа кодирования : mkvmerge v3.4.0 ('Rapunzel') сборка от May 15 2010 09:38:20
Библиотека кодирования : libebml v0.8.0 + libmatroska v0.9.0
Видео
Идентификатор : 1
Формат : AVC
Формат/Информация : Advanced Video Codec
Профиль формата : High@L4.1
Параметр CABAC формата : Да
Параметр ReFrames формата : 4 кадра
Идентификатор кодека : V_MPEG4/ISO/AVC
Продолжительность : 2 ч. 11 м.
Битрейт : 8848 Кбит/сек
Ширина : 1920 пикселей
Высота : 1080 пикселей
Соотношение сторон : 16:9
Частота кадров : 23,976 кадра/сек
Цветовое пространство : YUV
Субдискретизация насыщенности : 4:2:0
Битовая глубина : 8 бит
Тип развёртки : Прогрессивная
Бит/(Пиксели*Кадры) : 0.178
Размер потока : 8,13 Гбайт (97%)
Библиотека кодирования : x264 core 128 r2216 198a7ea
Настройки программы : cabac=1 / ref=4 / deblock=1:-3:-3 / analyse=0x3:0x133 / me=umh / subme=9 / psy=1 / psy_rd=1.00:0.15 / mixed_ref=1 / me_range=16 / chroma_me=1 / trellis=2 / 8x8dct=1 / cqm=0 / deadzone=21,11 / fast_pskip=0 / chroma_qp_offset=-3 / threads=3 / lookahead_threads=1 / sliced_threads=0 / nr=0 / decimate=1 / interlaced=0 / bluray_compat=0 / constrained_intra=0 / bframes=6 / b_pyramid=2 / b_adapt=2 / b_bias=0 / direct=3 / weightb=1 / open_gop=0 / weightp=2 / keyint=250 / keyint_min=23 / scenecut=40 / intra_refresh=0 / rc_lookahead=40 / rc=crf / mbtree=1 / crf=18.0 / qcomp=0.70 / qpmin=0 / qpmax=69 / qpstep=4 / vbv_maxrate=50000 / vbv_bufsize=50000 / crf_max=0.0 / nal_hrd=none / ip_ratio=1.40 / aq=1:0.70
Default : Нет
Forced : Нет
Аудио
Идентификатор : 2
Формат : MPEG Audio
Версия формата : Version 1
Профиль формата : Layer 3
Режим : Joint stereo
Расширение режима : MS Stereo
Идентификатор кодека : A_MPEG/L3
Идентификатор кодека/Подсказка : MP3
Продолжительность : 2 ч. 11 м.
Вид битрейта : Постоянный
Битрейт : 128 Кбит/сек
Каналы : 2 канала
Частота : 48,0 КГц
Метод сжатия : С потерями
Размер потока : 120 Мбайт (1%)
Заголовок : DVO (den904, DeadSno)
Язык : Russian
Default : Нет
Forced : Нет
Текст
Идентификатор : 3
Формат : UTF-8
Идентификатор кодека : S_TEXT/UTF8
Идентификатор кодека/Информация : UTF-8 Plain Text
Язык : Russian
Default : Нет
Forced : Нет
Меню
00:00:00.000 : :01
00:09:39.370 : :02
00:20:30.813 : :03
00:35:50.273 : :04
00:44:54.525 : :05
00:56:31.930 : :06
01:06:04.377 : :07
01:18:04.430 : :08
01:28:24.633 : :09
01:40:44.121 : :10
01:50:44.263 : :11
02:02:58.371 : :12
[Профиль] [ЛС]
Кто просматривает тему:

Форум Тема Автор Размер
National Geographic NG: Исследователь 2.0: Раскройте пошире глаза / Explorer. Eyes Wide Open [сезон 8 эпизод 06] (Brooke Runnette) [2016 г., Документальный, научно-познавательный, HDTVRip 720p] skorpionN 1.46 GB
Фильмы (DVD 5/9) Аршин Мал Алан / Arshin Mal Alan (Рза Тахмасиб, Николай Лещенко) [1945, СССР, Музыкальная комедия, DVD9] [Отреставрированный и раскрашенный] TorrentFilm 6.65 GB
История древнего мира Камни раскрывают тайны / Dans Le Secret Des Pierres [серии 1-10 из 10] (Валери Жирье, Гийом Эшт, Александр Мизар) [2005-2007 г.г., Документальный, история, археология, SATRip] skorpionN 7.26 GB
Секреты / Тайны Нераскрытые тайны. Золото Колчака (Москва 24) [2015 г., Документальный, познавательный, история, SATRip] достали все 595 MB
Фильмы (HD DVD, Blu-ray и BDRemux) Офицеры (Владимир Роговой) [1971, военная драма, BDRip 720p] [цветная / раскрашенная версия] painkiller 4.37 GB
Фильмы (HD Rips | 720p, 1080p) Офицеры (Владимир Роговой) [1971, СССР, военная драма, мелодрама, Blu-ray disc 1080p] [раскрашенная версия] TorrentFilm 21.41 GB
Телепередачи Раскрывая мистические тайны. Венцы безбрачия (2016) SATRip достали все 578 MB
Телепередачи Раскрывая мистические тайны. Вуду (2016) SATRip достали все 578 MB
Показать сообщения:    

Текущее время: Сегодня 02:15

Часовой пояс: GMT



Вы не можете начинать темы
Вы не можете отвечать на сообщения
Вы не можете редактировать свои сообщения
Вы не можете удалять свои сообщения
Вы не можете голосовать в опросах
Вы не можете прикреплять файлы к сообщениям
Вы не можете скачивать файлы