Раскаленная Луна / High Moon (Адам Кэйн / Adam Kane) [2014, США, Канада, фантастика, HDTVRip] Sub Rus + Original Eng

 
Автор Сообщение

TorrentFilm ®

Пол:

Стаж: 2 года

Сообщений: 7741



Награды: Нет

Торрент-статистика

Создавать темы 22-Дек-2014 02:00

[Цитировать]

Раскаленная Луна / High Moon
Страна: США, Канада
Жанр: фантастика
Год выпуска: 2014
Продолжительность: 01:20:03
Перевод: Субтитры (М.Васильев)
Cубтитры: русские
Оригинальная аудиодорожка: английский, русский (есть вшитые англ. титры на русскую речь)
Режиссер: Адам Кэйн / Adam Kane
Премьера: 15 сентября 2014 (телеканал SyFy)
В ролях: Джейк Сэндвиг, Крис Диамантополос, Чэрити Уэйкфилд, Джонатан Такер, Питер Макон
Описание: В далеком будущем земляне колонизировали Луну и начали добычу полезных ископаемых. Крупные корпорации, принадлежащие различным странам, ведут борьбу за доступ к богатым месторождениям. Американцы не доверяют русским, те пытаются перехитрить американцев, все подозревают Индию и ненавидят корпорацию «Галактический странник», монополизировавшую поставки кислорода на Луну... Когда на территории, контролируемой США, происходит взрыв, правительство решает, что это терракт и отправляет на Луну секретного агента для проведения расследования...
Доп. информация: Телевизионный фильм. Производство канала SyFy.
История производства любопытнее даже, чем сам фильм (шутка )
Канал SyFy очень хотел собственный «космический сериал». Для этих целей призвали сценариста Брайана Фуллера («Ганнибал»). Фуллер вдохновлялся написанной почти 60 лет назад, но все еще популярной, книжкой для среднего школьного возраста «Пещеры Лотоса», рассказывающей о группе подростков, которые находят на Луне разумную жизнь. Адаптируя под телевизионные нужды детский фикшэн, Фуллер не оставил от оригинала камня на камне. Подростки стали взрослыми. Вместо лунного квеста — шпионские интриги и секс с киборгами.
Тем временем канал подсчитал, во что выльется производство сериала и прикрыл проект. Фуллер, который рассчитывал на 10 серий по 40 минут, плюнул и хлопнул дверью. Тогда пришел его друг и товарищ по цеху Джим Грей и утрамбовал все написанное в 80 минут экранного времени. Кое где это порушило ход повествования, но канал остался доволен.
Критики тоже были, в массе своей, довольны. Фильм сдержанно хвалили (за идею и вложенные средства) и осторожно ругали (за финал). SyFy подумывает начать копить деньги и запустить сиквел о новых приключениях обитателей лунных колоний.
Предупреждение:
для зануд
фильм — сказка про условное будущее, где не действуют законы физики, астрономии, а иногда и здравого смысла.
Все недовольные могут жаловаться в раздачах «Звездных войн»
Сэмпл

Качество видео: HDTVRip (найден в сети)
Формат видео: MP 4
Видео: 706 Kbps, 720x404 (16:9), 23 976 fps, AVC
Аудио: 126 Kbps, 48.0 KHz, 2 ch, AAC
Формат субтитров: softsub (SRT)

MediaInfo

General
Complete name : C:\Users\Владелец\Downloads\High.Moon.2014.HDTV.x264-BATV.mp4
Format : MPEG-4
Format profile : Base Media
Codec ID : isom
File size : 479 MiB
Duration : 1h 20mn
Overall bit rate mode : Variable
Overall bit rate : 836 Kbps
Encoded date : UTC 2014-09-16 04:49:11
Tagged date : UTC 2014-09-16 04:49:11
Video
ID : 2
Format : AVC
Format/Info : Advanced Video Codec
Format profile : High@L3.1
Format settings, CABAC : Yes
Format settings, ReFrames : 5 frames
Codec ID : avc1
Codec ID/Info : Advanced Video Coding
Duration : 1h 20mn
Source duration : 1h 20mn
Bit rate : 706 Kbps
Maximum bit rate : 3 643 Kbps
Width : 720 pixels
Height : 404 pixels
Display aspect ratio : 16:9
Frame rate mode : Constant
Frame rate : 23.976 fps
Color space : YUV
Chroma subsampling : 4:2:0
Bit depth : 8 bits
Scan type : Progressive
Bits/(Pixel*Frame) : 0.101
Stream size : 404 MiB (84%)
Source stream size : 404 MiB (84%)
Writing library : x264 core 142 r2479 dd79a61
Encoding settings : cabac=1 / ref=5 / deblock=1:0:0 / analyse=0x3:0x113 / me=umh / subme=8 / psy=1 / psy_rd=1.00:0.00 / mixed_ref=1 / me_range=16 / chroma_me=1 / trellis=1 / 8x8dct=1 / cqm=0 / deadzone=21,11 / fast_pskip=1 / chroma_qp_offset=-2 / threads=12 / lookahead_threads=2 / sliced_threads=0 / nr=0 / decimate=1 / interlaced=0 / bluray_compat=0 / constrained_intra=0 / bframes=3 / b_pyramid=2 / b_adapt=2 / b_bias=0 / direct=3 / weightb=1 / open_gop=0 / weightp=2 / keyint=250 / keyint_min=23 / scenecut=40 / intra_refresh=0 / rc_lookahead=50 / rc=crf / mbtree=1 / crf=19.0 / qcomp=0.60 / qpmin=0 / qpmax=69 / qpstep=4 / ip_ratio=1.40 / aq=1:1.00
Encoded date : UTC 2014-09-16 04:23:34
Tagged date : UTC 2014-09-16 04:49:14
Matrix coefficients : BT.709
Audio
ID : 1
Format : AAC
Format/Info : Advanced Audio Codec
Format profile : LC
Codec ID : 40
Duration : 1h 20mn
Bit rate mode : Variable
Bit rate : 126 Kbps
Maximum bit rate : 159 Kbps
Channel(s) : 2 channels
Channel positions : Front: L R
Sampling rate : 48.0 KHz
Compression mode : Lossy
Delay relative to video : 83ms
Stream size : 72.1 MiB (15%)
Encoded date : UTC 2014-09-16 04:49:11
Tagged date : UTC 2014-09-16 04:49:14

Скриншот c названием фильма

Скриншоты




Титры

1
00:00:50,352 --> 00:00:51,953
Астронавты - герои.
2
00:00:52,033 --> 00:00:54,302
Пусть дают медали,
3
00:00:54,369 --> 00:00:56,003
если починим передатчик.
4
00:00:57,422 --> 00:00:58,673
Скафандр Базза Олдрина
5
00:00:58,724 --> 00:01:00,591
не был цвета
тюремной робы.
6
00:01:00,676 --> 00:01:02,143
Выпендрежники!
7
00:01:02,210 --> 00:01:03,477
Эти первые астронавты.
8
00:01:03,545 --> 00:01:05,646
Они были на луне
2 часа.
9
00:01:05,714 --> 00:01:06,931
Я тут уже 10.
10
00:01:07,015 --> 00:01:09,015
Ты говорил, что высадка
на Луну была фальшивкой.
11
00:01:09,040 --> 00:01:11,051
А их медали!
12
00:01:11,103 --> 00:01:12,687
Все, что они заслужили -
13
00:01:12,738 --> 00:01:15,723
"Оскар" за режиссуру.
14
00:01:15,774 --> 00:01:17,558
Рухнувший спутник.
15
00:01:17,609 --> 00:01:20,494
Спутники просто так
не падают.
16
00:01:22,614 --> 00:01:24,699
Этот упал.
17
00:01:27,919 --> 00:01:29,403
Так, дай мне...
18
00:01:29,454 --> 00:01:30,788
Что тут у нас...
19
00:01:32,741 --> 00:01:33,758
Ух ты...
20
00:01:35,711 --> 00:01:37,712
Провод перерезан.
21
00:01:37,763 --> 00:01:39,747
Диверсия.
Релиз-группа
[Профиль] [ЛС]
Кто просматривает тему:

Форум Тема Автор Размер
Программы [Графика] Раскаленный огонь Theme Go Launcher [Android 2.0+, RUS] TorrentFilm 3 MB
Путешествия и приключения Золотые россыпи (Винниченко Владимир) [2013, приключения, аудиокнига, MP3, 96 kbps, Раскатова Светлана] Magnat 423 MB
Фильмы (HD Rips | 720p, 1080p) Небраска / Nebraska (Александр Пэйн / Alexander Payne) [2013, США, драма, приключения, BDRip 720p] VO (Матвеев) + Sub (Rus, Eng) + Original Eng bot 9.14 GB
Любовные романы и эротика Невеста для графа (Картленд Барбара) [2014, Современные любовные романы, аудиокнига, MP3, 96 kbps, Раскатова Светлана] Magnat 363 MB
Боевики, детективы, триллеры Ни за грош (Абрамов Геннадий) [2015, Детектив, аудиокнига, MP3, 96 kbps, Раскатова Светлана] Magnat 158 MB
Фильмы 2014 года Раскаленная Луна / High Moon (Адам Кэйн / Adam Kane) [2014, Канада, Фантастика, триллер, драма, HDTVRip] DVO (PashaUp & ИриСКА) TorrentFilm 1.36 GB
Отечественные cериалы Раскаленный периметр [01-04 из 04] (2014) DVB от Files-x Белочка 3.15 GB
Отечественные cериалы Раскаленный периметр [01-04 из 04] (2014) HDTVRip 720p от MediaClub достали все 7.37 GB
Показать сообщения:    

Текущее время: Сегодня 06:04

Часовой пояс: GMT



Вы не можете начинать темы
Вы не можете отвечать на сообщения
Вы не можете редактировать свои сообщения
Вы не можете удалять свои сообщения
Вы не можете голосовать в опросах
Вы не можете прикреплять файлы к сообщениям
Вы не можете скачивать файлы