Ран / Ran (1985) BDRemux 1080p | 4K Remastered | P, P2

 
Автор Сообщение

Russian Mafia ®

Пол:

Стаж: 1 год 8 месяцев

Сообщений: 4257



Награды: 10 (Подробнее)

Top Releaser 2 (Количество: 1) Top Releaser 3 (Количество: 1) Top Releaser 5 (Количество: 1)
Торрент-статистика

Создавать темы 25-Мар-2016 13:44

[Цитировать]

Информация о фильме
Название: Ран
Оригинальное название: Ran
Год выхода: 1985
Жанр: боевик, драма, военный
Режиссер: Акира Куросава
В ролях: Тацуя Накадай, Акира Тэрао, Джинпачи Незу, Дайскэ Рю, Миэко Харада, Йошико Миядзаки, Хисаси Игава, Питер, Масаюки Юи, Кадзуо Като
О фильме: Япония, XVI век. Стареющий правитель Хидетора объявляет о разделе своих владений между тремя сыновьями.
Обманутый фальшивыми уверениями в верности двух старших сыновей, Хидетора прогоняет младшего, осмелившегося утверждать, что решение отца навлечет гибель на весь их род. Став жертвой коварного предательства, Хидетора лишается рассудка, а между его наследниками начинается беспощадная братоубийственная война…

Страна: Япония, Франция
Продолжительность: 02:42:41
Перевод 1: Профессиональный (многоголосый закадровый) DVDXpert
Перевод 2: Профессиональный (двухголосый закадровый)
Перевод 3: Профессиональный (двухголосый закадровый) Культура
Перевод 4: Профессиональный (двухголосый закадровый) ОРТ
Оригинальная аудиодорожка: японская
Файл
Качество: BDRemux 1080p [Ran 1985 1080p Blu-ray AVC DTS-HD MA 4.0-4K-MoonFans]
Видео: MPEG-4 AVC Video / 29989 kbps / 1080p / 23.976 fps / 16:9 / High Profile 4.1
Аудио 1: Russian Dolby Digital Audio / 5.1 / 48 kHz / 448 kbps |Многоголосый закадровый, DVDXpert|
Аудио 2: Russian Dolby Digital Audio / 2.0 / 48 kHz / 224 kbps |Двухголосый закадровый|
Аудио 3: Russian Dolby Digital Audio / 2.0 / 48 kHz / 192 kbps |Двухголосый закадровый, Культура|
Аудио 4: Russian Dolby Digital Audio / 1.0 / 48 kHz / 192 kbps |Двухголосый закадровый, ОРТ|
Аудио 5: Japanese / DTS-HD Master Audio / 4.0 / 48 kHz / 2606 kbps / 24-bit (DTS Core: 4.0 / 48 kHz / 1509 kbps / 24-bit)
Субтитры: Русские (2 варианта), Английские
Семпл

Скриншоты

MediaInfo

Format : Matroska
Format version : Version 4 / Version 2
File size : 38.1 GiB
Duration : 2h 42mn
Overall bit rate mode : Variable
Overall bit rate : 33.5 Mbps
Movie name : Ran (1985)
Encoded date : UTC 2016-03-24 11:13:29
Writing application : mkvmerge v8.9.0 ('Father Daughter') 64bit
Writing library : libebml v1.3.3 + libmatroska v1.4.4
Video
ID : 1
Format : AVC
Format/Info : Advanced Video Codec
Format profile : High@L4.1
Format settings, CABAC : Yes
Format settings, ReFrames : 4 frames
Codec ID : V_MPEG4/ISO/AVC
Duration : 2h 42mn
Bit rate mode : Variable
Bit rate : 29.9 Mbps
Maximum bit rate : 39.0 Mbps
Width : 1 920 pixels
Height : 1 080 pixels
Display aspect ratio : 16:9
Frame rate mode : Constant
Frame rate : 23.976 (24000/1001) fps
Color space : YUV
Chroma subsampling : 4:2:0
Bit depth : 8 bits
Scan type : Progressive
Bits/(Pixel*Frame) : 0.601
Stream size : 33.9 GiB (89%)
Language : Japanese
Default : Yes
Forced : No
Audio #1
ID : 2
Format : AC-3
Format/Info : Audio Coding 3
Mode extension : CM (complete main)
Format settings, Endianness : Big
Codec ID : A_AC3
Duration : 2h 42mn
Bit rate mode : Constant
Bit rate : 448 Kbps
Channel(s) : 6 channels
Channel positions : Front: L C R, Side: L R, LFE
Sampling rate : 48.0 KHz
Frame rate : 31.250 fps (1536 spf)
Compression mode : Lossy
Stream size : 521 MiB (1%)
Title : MVO [DVDXpert]
Language : Russian
Default : Yes
Forced : No
Audio #2
ID : 3
Format : AC-3
Format/Info : Audio Coding 3
Mode extension : CM (complete main)
Format settings, Endianness : Big
Codec ID : A_AC3
Duration : 2h 42mn
Bit rate mode : Constant
Bit rate : 224 Kbps
Channel(s) : 2 channels
Channel positions : Front: L R
Sampling rate : 48.0 KHz
Frame rate : 31.250 fps (1536 spf)
Compression mode : Lossy
Stream size : 261 MiB (1%)
Title : DVO
Language : Russian
Default : No
Forced : No
Audio #3
ID : 4
Format : AC-3
Format/Info : Audio Coding 3
Mode extension : CM (complete main)
Format settings, Endianness : Big
Codec ID : A_AC3
Duration : 2h 42mn
Bit rate mode : Constant
Bit rate : 192 Kbps
Channel(s) : 2 channels
Channel positions : Front: L R
Sampling rate : 48.0 KHz
Frame rate : 31.250 fps (1536 spf)
Compression mode : Lossy
Stream size : 223 MiB (1%)
Title : DVO [Культура]
Language : Russian
Default : No
Forced : No
Audio #4
ID : 5
Format : AC-3
Format/Info : Audio Coding 3
Mode extension : CM (complete main)
Format settings, Endianness : Big
Codec ID : A_AC3
Duration : 2h 42mn
Bit rate mode : Constant
Bit rate : 192 Kbps
Channel(s) : 1 channel
Channel positions : Front: C
Sampling rate : 48.0 KHz
Frame rate : 31.250 fps (1536 spf)
Compression mode : Lossy
Stream size : 223 MiB (1%)
Title : DVO [ОРТ]
Language : Russian
Default : No
Forced : No
Audio #5
ID : 6
Format : DTS
Format/Info : Digital Theater Systems
Format profile : MA / Core
Mode : 16
Format settings, Endianness : Big
Codec ID : A_DTS
Duration : 2h 42mn
Bit rate mode : Variable / Constant
Bit rate : 2 606 Kbps / 1 509 Kbps
Channel(s) : 4 channels
Channel positions : Front: L C R, Back: C
Sampling rate : 48.0 KHz
Frame rate : 93.750 fps (512 spf)
Bit depth : 24 bits
Compression mode : Lossless / Lossy
Stream size : 2.96 GiB (8%)
Language : Japanese
Default : No
Forced : No
Text #1
ID : 7
Format : UTF-8
Codec ID : S_TEXT/UTF8
Codec ID/Info : UTF-8 Plain Text
Duration : 2h 35mn
Bit rate : 43 bps
Count of elements : 1027
Stream size : 49.8 KiB (0%)
Title : DVDXpert
Language : Russian
Default : No
Forced : No
Text #2
ID : 8
Format : UTF-8
Codec ID : S_TEXT/UTF8
Codec ID/Info : UTF-8 Plain Text
Duration : 2h 35mn
Bit rate : 52 bps
Count of elements : 1336
Stream size : 60.1 KiB (0%)
Language : Russian
Default : No
Forced : No
Text #3
ID : 9
Format : UTF-8
Codec ID : S_TEXT/UTF8
Codec ID/Info : UTF-8 Plain Text
Duration : 2h 42mn
Bit rate : 31 bps
Count of elements : 1254
Stream size : 37.8 KiB (0%)
Title : Criterion
Language : English
Default : No
Forced : No
Menu
00:00:00.000 : en:00:00:00.000
00:00:31.448 : en:00:00:31.448
00:03:00.680 : en:00:03:00.680
00:09:02.125 : en:00:09:02.125
00:12:08.937 : en:00:12:08.937
00:21:43.302 : en:00:21:43.302
00:25:28.152 : en:00:25:28.152
00:27:27.855 : en:00:27:27.855
00:30:25.490 : en:00:30:25.490
00:38:48.409 : en:00:38:48.409
00:41:32.323 : en:00:41:32.323
00:45:07.413 : en:00:45:07.413
00:49:51.739 : en:00:49:51.739
00:51:36.010 : en:00:51:36.010
00:53:53.856 : en:00:53:53.856
00:59:28.565 : en:00:59:28.565
01:00:20.200 : en:01:00:20.200
01:01:51.416 : en:01:01:51.416
01:07:31.172 : en:01:07:31.172
01:15:40.536 : en:01:15:40.536
01:18:00.551 : en:01:18:00.551
01:25:43.138 : en:01:25:43.138
01:28:05.030 : en:01:28:05.030
01:30:11.197 : en:01:30:11.197
01:35:20.715 : en:01:35:20.715
01:35:54.749 : en:01:35:54.749
01:38:35.201 : en:01:38:35.201
01:43:58.357 : en:01:43:58.357
01:45:55.349 : en:01:45:55.349
01:48:33.632 : en:01:48:33.632
01:53:32.097 : en:01:53:32.097
01:54:51.134 : en:01:54:51.134
01:58:27.392 : en:01:58:27.392
01:59:36.086 : en:01:59:36.086
02:00:13.039 : en:02:00:13.039
02:01:13.433 : en:02:01:13.433
02:02:55.326 : en:02:02:55.326
02:04:15.031 : en:02:04:15.031
02:07:23.594 : en:02:07:23.594
02:12:45.124 : en:02:12:45.124
02:13:38.302 : en:02:13:38.302
02:17:28.073 : en:02:17:28.073
02:22:03.140 : en:02:22:03.140
02:28:04.501 : en:02:28:04.501
02:33:09.430 : en:02:33:09.430
02:36:02.144 : en:02:36:02.144
02:39:06.328 : en:02:39:06.328
[Профиль] [ЛС]
Показать сообщения:    

Текущее время: Сегодня 07:09

Часовой пояс: GMT



Вы не можете начинать темы
Вы не можете отвечать на сообщения
Вы не можете редактировать свои сообщения
Вы не можете удалять свои сообщения
Вы не можете голосовать в опросах
Вы не можете прикреплять файлы к сообщениям
Вы не можете скачивать файлы