Райские кущи (Александр Прошкин) [2015, Россия, драма, WEB-DL 1080p] + Original Rus

 
Автор Сообщение

TorrentFilm ®

Пол:

Стаж: 1 год 11 месяцев

Сообщений: 7741



Награды: Нет

Торрент-статистика

Создавать темы 07-Янв-2016 00:12

[Цитировать]

Райские кущи
Страна: Россия
Студия: Амкарт, Талан
Жанр: драма
Год выпуска: 2015
Продолжительность: 01:44:11
Перевод: Не требуется
Cубтитры: нет
Оригинальная аудиодорожка: русский
Режиссер: Александр Прошкин
В ролях: Евгений Цыганов, Чулпан Хаматова, Екатерина Смирнова, Дмитрий Куличков, Артём Семакин, Виталий Хаев, Алёна Яковлева, Ангелина Миримская, Виктор Немец, Агриппина Стеклова
Описание: Креативный циник и остроумный бабник, Виктор Зилов осыпан подарками судьбы: карьерный взлет, возродившаяся страсть в отношениях с чудесной, умной, красивой женой, новая квартира в элитном квартале, в «кущах» местного провинциального рая. Но как вынести пустоту души и пошлость благополучия? С такими, как он, трудно жить, но их невозможно не любить…
Альтернативное описание: Мощный жизненный взлет. Карьерный прорыв. Возродившаяся страсть в отношениях с чудесной, умной, красивой женой. Переезд в элитный квартал, в «кущи» местного провинциального рая. Виктор осыпан подарками судьбы, осчастливлен до невероятной степени. Почему же эти подарки ему так непросто принять?

Sample
Тип релиза: WEB-DL 1080p
Контейнер: MKV
Видео: MPEG4 AVC Video, H264, 16:9, 1920x1038, 25 fps, 4966 kbps
Аудио: Russian (AC3, 6 ch, 384 kbps, 16 bits, 48.0 KHz) - оригинал

MediaInfo

General
Unique ID : 193816970651600550208862746166245298597 (0x91CFCA6EA58B216A8121DC7F4F6191A5)
Complete name : E:\Райские кущи 2015 WEB-DL 1080p.mkv
Format : Matroska
Format version : Version 4 / Version 2
File size : 3.97 GiB
Duration : 1h 44mn
Overall bit rate : 5 458 Kbps
Encoded date : UTC 2015-12-20 20:39:43
Writing application : mkvmerge v8.3.0 ('Over the Horizon') 64bit
Writing library : libebml v1.3.1 + libmatroska v1.4.2
DURATION : 01:44:11.872000000
NUMBER_OF_FRAMES : 195371
NUMBER_OF_BYTES : 300089856
_STATISTICS_WRITING_APP : mkvmerge v8.3.0 ('Over the Horizon') 64bit
_STATISTICS_WRITING_DATE_UTC : 2015-12-20 20:39:43
_STATISTICS_TAGS : BPS DURATION NUMBER_OF_FRAMES NUMBER_OF_BYTES
Video
ID : 1
Format : AVC
Format/Info : Advanced Video Codec
Format profile : High@L4.0
Format settings, CABAC : Yes
Format settings, ReFrames : 4 frames
Codec ID : V_MPEG4/ISO/AVC
Duration : 1h 44mn
Bit rate : 4 966 Kbps
Width : 1 920 pixels
Height : 1 038 pixels
Display aspect ratio : 1.85:1
Frame rate mode : Constant
Frame rate : 25.000 fps
Color space : YUV
Chroma subsampling : 4:2:0
Bit depth : 8 bits
Scan type : Progressive
Bits/(Pixel*Frame) : 0.100
Stream size : 3.61 GiB (91%)
Language : English
Default : Yes
Forced : No
Color primaries : BT.709
Transfer characteristics : BT.709
Matrix coefficients : BT.709
Audio
ID : 2
Format : AC-3
Format/Info : Audio Coding 3
Mode extension : CM (complete main)
Format settings, Endianness : Big
Codec ID : A_AC3
Duration : 1h 44mn
Bit rate mode : Constant
Bit rate : 384 Kbps
Channel count : 6 channels
Channel positions : Front: L C R, Side: L R, LFE
Sampling rate : 48.0 KHz
Bit depth : 16 bits
Compression mode : Lossy
Stream size : 286 MiB (7%)
Language : Russian
Default : Yes
Forced : No
Menu
00:00:00.000 : en:Глава 1
00:05:44.000 : en:Глава 2
00:17:05.000 : en:Глава 3
00:27:17.000 : en:Глава 4
00:37:41.000 : en:Глава 5
00:46:21.000 : en:Глава 6
00:53:24.000 : en:Глава 7
00:58:08.000 : en:Глава 8
01:02:35.000 : en:Глава 9
01:07:56.000 : en:Глава 10
01:12:41.000 : en:Глава 11
01:21:44.000 : en:Глава 12
01:28:37.000 : en:Глава 13
01:37:09.000 : en:Глава 14

Скриншоты

[Профиль] [ЛС]
Показать сообщения:    

Текущее время: Сегодня 15:53

Часовой пояс: GMT



Вы не можете начинать темы
Вы не можете отвечать на сообщения
Вы не можете редактировать свои сообщения
Вы не можете удалять свои сообщения
Вы не можете голосовать в опросах
Вы не можете прикреплять файлы к сообщениям
Вы не можете скачивать файлы