Район 37 / Outpost 37 (2014) BDRip 1080p

 
Автор Сообщение

sergej644 ®

Пол:

Стаж: 4 года 11 месяцев

Сообщений: 6038

Откуда: Soviet Union



Награды: Нет

Торрент-статистика

Создавать темы 17-Фев-2015 18:59

[Цитировать]

Оригинальное название: Outpost 37
Название: Район 37
Жанр: Фантастика, боевик, триллер
Режиссёрр: Джаббар Райсани
Год: 2014
В ролях:Эдриан Пол, Рик Раванелло, Рейли МакКлендон, Дуглас Тейт, Джо Риган, Мэттью Холмс, Эндрю Дэволи, Свен Райгрок, Брэндон Оре, Николас Расенти

…Исследуя события - инопланетного вторжения, команда документалистов следует за элитным подразделением морских пехотинцев...
Страна: Великобритания, ЮАР
Студия: ltitude Film Entertainment, Bigscope Films, Out of Africa Entertainment
Продолжительность: 01:32:09
Перевод: Профессиональный ( многоголосый )
Кодек: MPEG-4 AVC
Качество: BDRip
Видео: 7174 kb/s | 1920x1040
Звук: Russian: AC3, 384 kb/s ( 6 ch )
German: DTS, 1510 kb/s (6 ch)
Субтитры: German
-

Mediainfo:

Общее
Уникальный идентификатор : 188505340083035985789960814000777056925 (0x8DD0CED3786A81E99A072F19F35DD29D)
Полное имя : Район 37 Outpost 37 (2014) BDRip 1080pRayon.37.2014.P.BDRip.1080p.6ch.mkv
Формат : Matroska
Версия формата : Version 4 / Version 2
Размер файла : 5,83 Гбайт
Продолжительность : 1 ч. 32 м.
Общий поток : 9060 Кбит/сек
Дата кодирования : UTC 2015-02-11 16:51:02
Программа кодирования : mkvmerge v6.9.1 ('Blue Panther') 64bit built on Apr 18 2014 18:23:38
Библиотека кодирования : libebml v1.3.0 + libmatroska v1.4.1
_STATISTICS_WRITING_APP : mkvmerge v7.6.0 ('Garden of Dreams') 64bit built on Feb 8 2015 13:04:34
_STATISTICS_WRITING_DATE_UTC : 2015-02-11 15:14:12
_STATISTICS_TAGS : BPS DURATION NUMBER_OF_FRAMES NUMBER_OF_BYTES
DURATION : 01:24:51.336000000
NUMBER_OF_FRAMES : 41
NUMBER_OF_BYTES : 2391
Видео
Идентификатор : 1
Формат : AVC
Формат/Информация : Advanced Video Codec
Профиль формата : High@L4.1
Параметр CABAC формата : Да
Параметр ReFrames формата : 4 кадра
Идентификатор кодека : V_MPEG4/ISO/AVC
Продолжительность : 1 ч. 32 м.
Битрейт : 7167 Кбит/сек
Ширина : 1920 пикселей
Высота : 1040 пикселей
Соотношение сторон : 1,85:1
Режим частоты кадров : Постоянный
Частота кадров : 23,976 кадра/сек
Цветовое пространство : YUV
Субдискретизация насыщенности : 4:2:0
Битовая глубина : 8 бит
Тип развёртки : Прогрессивная
Бит/(Пиксели*Кадры) : 0.150
Размер потока : 4,50 Гбайт (77%)
Библиотека кодирования : x264 core 144 r2525 40bb568
Настройки программы : cabac=1 / ref=4 / deblock=1:-2:-2 / analyse=0x3:0x113 / me=umh / subme=7 / psy=1 / psy_rd=1.00:0.25 / mixed_ref=1 / me_range=16 / chroma_me=1 / trellis=1 / 8x8dct=1 / cqm=0 / deadzone=6,6 / fast_pskip=0 / chroma_qp_offset=-4 / threads=6 / lookahead_threads=1 / sliced_threads=0 / nr=0 / decimate=0 / interlaced=0 / bluray_compat=0 / constrained_intra=0 / bframes=3 / b_pyramid=2 / b_adapt=1 / b_bias=0 / direct=1 / weightb=1 / open_gop=0 / weightp=2 / keyint=250 / keyint_min=23 / scenecut=40 / intra_refresh=0 / rc_lookahead=40 / rc=2pass / mbtree=1 / bitrate=7167 / ratetol=1.0 / qcomp=0.80 / qpmin=0 / qpmax=69 / qpstep=4 / cplxblur=20.0 / qblur=0.5 / ip_ratio=1.10 / aq=1:0.50
Default : Да
Forced : Нет
_STATISTICS_WRITING_APP : mkvmerge v7.6.0 ('Garden of Dreams') 64bit built on Feb 8 2015 13:04:34
_STATISTICS_WRITING_DATE_UTC : 2015-02-11 15:14:12
_STATISTICS_TAGS : BPS DURATION NUMBER_OF_FRAMES NUMBER_OF_BYTES
DURATION : 01:32:09.524000000
NUMBER_OF_FRAMES : 132576
NUMBER_OF_BYTES : 4952104771
Аудио #1
Идентификатор : 2
Формат : AC-3
Формат/Информация : Audio Coding 3
Расширение режима : CM (complete main)
Параметр Endianness формата : Big
Идентификатор кодека : A_AC3
Продолжительность : 1 ч. 32 м.
Вид битрейта : Постоянный
Битрейт : 384 Кбит/сек
Каналы : 6 каналов
Расположение каналов : Front: L C R, Side: L R, LFE
Частота : 48,0 КГц
Битовая глубина : 16 бит
Метод сжатия : С потерями
Размер потока : 253 Мбайт (4%)
Default : Да
Forced : Нет
Аудио #2
Идентификатор : 3
Формат : DTS
Формат/Информация : Digital Theater Systems
Идентификатор кодека : A_DTS
Продолжительность : 1 ч. 32 м.
Вид битрейта : Постоянный
Битрейт : 1510 Кбит/сек
Каналы : 6 каналов
Расположение каналов : Front: L C R, Side: L R, LFE
Частота : 48,0 КГц
Битовая глубина : 24 бит
Метод сжатия : С потерями
Размер потока : 995 Мбайт (17%)
Язык : English
Default : Нет
Forced : Нет
Текст
Идентификатор : 4
Формат : UTF-8
Идентификатор кодека : S_TEXT/UTF8
Идентификатор кодека/Информация : UTF-8 Plain Text
Язык : German
Default : Да
Forced : Да
Меню
00:00:00.000 : en:00:00:00.000
00:06:25.343 : en:00:06:25.343
00:11:50.501 : en:00:11:50.501
00:15:52.660 : en:00:15:52.660
00:20:22.138 : en:00:20:22.138
00:26:25.834 : en:00:26:25.834
00:31:38.772 : en:00:31:38.772
00:36:24.641 : en:00:36:24.641
00:43:21.057 : en:00:43:21.057
00:49:12.908 : en:00:49:12.908
00:55:08.722 : en:00:55:08.722
00:59:15.469 : en:00:59:15.469
01:02:36.670 : en:01:02:36.670
01:11:27.700 : en:01:11:27.700
01:15:44.623 : en:01:15:44.623
01:25:23.660 : en:01:25:23.660
-

Скриншоты

-
-
[Профиль] [ЛС]
Кто просматривает тему:

Форум Тема Автор Размер
Фильмы 2014 года 13-й район: Кирпичные особняки / Brick Mansions (Камиль Деламарр / Camille Delamarre) [2014, Боевик, криминал, BDRip-AVC] Dub (R5) + Original (Eng) + Sub (Eng) sergej644 2.18 GB
Фильмы 2014 года 13-й район: Кирпичные особняки / Brick Mansions (Камиль Деламарр / Camille Delamarre) [2014, Франция, Боевик, криминал, WEB-DLRip] Dub bot 1.46 GB
Фильмы 2014 года 13-й район: Кирпичные особняки / Brick Mansions (Камиль Деламарр / Camille Delamarre) [2014, Франция, Канада, боевик, драма, криминал,WEBRip] Dub bot 703 MB
Фильмы 2014 года 13-й район: Кирпичные особняки / Brick Mansions (Камиль Деламарр / Camille Delamarre) [2014, Франция, Канада, боевик, криминал, BDRip, 720p] Dub (Студия "CineLab SoundMix") sergej644 4.85 GB
Apple, iOS, iPad, iPhone [iPad] 13-й район: Кирпичные особняки / Brick Mansions (Камиль Деламарр / Camille Delamarre ) [2014, Франция, Канада, Боевик, криминал, BDRip, SD (576p)] DUB + Original + sub (eng) sergej644 1.57 GB
Разная литература Правдин Дмитрий - Хирург «на районе» (2015) FB2 достали все 2 MB
Фильмы (HD DVD, Blu-ray и BDRemux) Район 37 / Outpost 37 (2014) BDRemux [H.264/1080p] [DVO] достали все 20.82 GB
Фильмы 2014 года Район 37 / Outpost 37 (Джаббар Райсани ) [2014, Фантастика, боевик, триллер] HDRip BOSS 1.37 GB
Показать сообщения:    

Текущее время: Сегодня 06:28

Часовой пояс: GMT



Вы не можете начинать темы
Вы не можете отвечать на сообщения
Вы не можете редактировать свои сообщения
Вы не можете удалять свои сообщения
Вы не можете голосовать в опросах
Вы не можете прикреплять файлы к сообщениям
Вы не можете скачивать файлы