Район 37 / Outpost 37 (Джаббар Райсани ) [2014, Фантастика, боевик, триллер] HDRip

 
Автор Сообщение

BOSS ®

Пол:

Стаж: 2 года 1 месяц

Сообщений: 3735

Откуда: ODESSA



Награды: 20 (Подробнее)

Top Keeper 3 (Количество: 1) За внесенный вклад в развитие сайта (Количество: 1) Mega Releaser 1 (Количество: 1)
Торрент-статистика

Создавать темы 12-Фев-2015 20:25

[Цитировать]

Оригинальное название: Outpost 37
Название: Район 37
Жанр: Фантастика, боевик, триллер
Режиссёрр: Джаббар Райсани
Год: 2014
В ролях: Эдриан Пол, Рик Раванелло, Рейли МакКлендон, Дуглас Тейт, Джо Риган, Мэттью Холмс, Эндрю Дэволи, Свен Райгрок, Брэндон Оре, Николас Расенти

…Исследуя события - инопланетного вторжения, команда документалистов следует за элитным подразделением морских пехотинцев...
Страна: Великобритания, ЮАР
Студия: ltitude Film Entertainment, Bigscope Films, Out of Africa Entertainment
Продолжительность: 01:32:09
Перевод: Профессиональный ( многоголосый )
Кодек: AVI ( XviD )
Качество: HDRip
Видео: 1729 kb/s | 720x384
Звук: AC3, 384 kb/s ( 6 ch )
Субтитры: Отсутствуют
-

Mediainfo:

Общее
Полное имя : Район 37 Outpost 37 (2014) HDRipRayon.37.2014.P.HDRip.6ch.1400MB.avi
Формат : AVI
Формат/Информация : Audio Video Interleave
Размер файла : 1,37 Гбайт
Продолжительность : 1 ч. 32 м.
Общий поток : 2123 Кбит/сек
Программа кодирования : VirtualDubMod 1.5.10.2 (build 2540/release)
Библиотека кодирования : VirtualDubMod build 2540/release
Видео
Идентификатор : 0
Формат : MPEG-4 Visual
Профиль формата : Advanced Simple@L5
Параметр BVOP формата : 2
Параметр QPel формата : Нет
Параметр GMC формата : Без точки перехода
Параметр матрицы формата : Default (MPEG)
Идентификатор кодека : XVID
Идентификатор кодека/Подсказка : XviD
Продолжительность : 1 ч. 32 м.
Битрейт : 1730 Кбит/сек
Ширина : 720 пикселей
Высота : 384 пикселя
Соотношение сторон : 1,85:1
Частота кадров : 23,976 кадра/сек
Цветовое пространство : YUV
Субдискретизация насыщенности : 4:2:0
Битовая глубина : 8 бит
Тип развёртки : Прогрессивная
Метод сжатия : С потерями
Бит/(Пиксели*Кадры) : 0.261
Размер потока : 1,11 Гбайт (81%)
Библиотека кодирования : XviD 1.2.1 (UTC 2008-12-04)
Аудио
Идентификатор : 1
Формат : AC-3
Формат/Информация : Audio Coding 3
Расширение режима : CM (complete main)
Параметр Endianness формата : Big
Идентификатор кодека : 2000
Продолжительность : 1 ч. 32 м.
Вид битрейта : Постоянный
Битрейт : 384 Кбит/сек
Каналы : 6 каналов
Расположение каналов : Front: L C R, Side: L R, LFE
Частота : 48,0 КГц
Битовая глубина : 16 бит
Метод сжатия : С потерями
Размер потока : 253 Мбайт (18%)
Выравнивание : Разделение по промежуткам
Продолжительность промежутка : 42 мс. (1,00 видеокадр)
Время предзагрузки промежутка : 500 мс.
- - -
[Профиль] [ЛС]
Кто просматривает тему:

Форум Тема Автор Размер
Фильмы 2014 года 13-й район: Кирпичные особняки / Brick Mansions (Камиль Деламарр / Camille Delamarre) [2014, Боевик, криминал, BDRip-AVC] Dub (R5) + Original (Eng) + Sub (Eng) sergej644 2.18 GB
Фильмы 2014 года 13-й район: Кирпичные особняки / Brick Mansions (Камиль Деламарр / Camille Delamarre) [2014, Франция, Боевик, криминал, WEB-DLRip] Dub bot 1.46 GB
Фильмы 2014 года 13-й район: Кирпичные особняки / Brick Mansions (Камиль Деламарр / Camille Delamarre) [2014, Франция, Канада, боевик, драма, криминал,WEBRip] Dub bot 703 MB
Фильмы 2014 года 13-й район: Кирпичные особняки / Brick Mansions (Камиль Деламарр / Camille Delamarre) [2014, Франция, Канада, боевик, криминал, BDRip, 720p] Dub (Студия "CineLab SoundMix") sergej644 4.85 GB
Apple, iOS, iPad, iPhone [iPad] 13-й район: Кирпичные особняки / Brick Mansions (Камиль Деламарр / Camille Delamarre ) [2014, Франция, Канада, Боевик, криминал, BDRip, SD (576p)] DUB + Original + sub (eng) sergej644 1.57 GB
Разная литература Правдин Дмитрий - Хирург «на районе» (2015) FB2 достали все 2 MB
Фильмы (HD DVD, Blu-ray и BDRemux) Район 37 / Outpost 37 (2014) BDRemux [H.264/1080p] [DVO] достали все 20.82 GB
Фильмы (HD Rips | 720p, 1080p) Район 37 / Outpost 37 (2014) BDRip 1080p sergej644 5.83 GB
Показать сообщения:    

Текущее время: Сегодня 12:42

Часовой пояс: GMT



Вы не можете начинать темы
Вы не можете отвечать на сообщения
Вы не можете редактировать свои сообщения
Вы не можете удалять свои сообщения
Вы не можете голосовать в опросах
Вы не можете прикреплять файлы к сообщениям
Вы не можете скачивать файлы