Разумное сомнение / Reasonable Doubt (Питер Хауит / Peter Howitt) [2014, Германия, Канада, триллер, криминал, WEB-DLRip] VO (ViruseProject)

 
Автор Сообщение

Создавать темы 13-Июл-2014 16:39

Разумное сомнение / Reasonable Doubt
Страна: Германия, Канада
Жанр: триллер, криминал
Год выпуска: 2014
Продолжительность: 01:31:16
Перевод: Одноголосый закадровый ViruseProject
Cубтитры: нет
Оригинальная аудиодорожка: да
Режиссер: Питер Хауит / Peter Howitt
В ролях: Доминик Купер, Сэмюэл Л. Джексон, Эрин Карплак, Глория Рубен, Райан Роббинс, Дилан Тейлор, Лэйн Стайлз, Филипп Бреннинкмейер, Джон Б. Лоу, Джессика Бёрлсон и другие
Описание: Жизнь окружного прокурора переворачивается с ног на голову, когда он попадает в аварию и сбивает человека, а за его преступление другого человека арестовывают и обвиняют в убийстве.


Релиз:
Закадровое озвучание: Александр Харченко
Перевод: Евгения Орлова
Сведение звука: viruse (Виталий Емельянов)
Видео взято с: http://torrentfilm.net/forum/viewtopic.php?t=4656483
смотреть ТРЕЙЛЕР к фильму на youtube
смотреть СЕМПЛ озвучки на youtube
скачать СЕМПЛ с multi-up
Качество видео: WEB-DLRip
Формат видео: AVI
Видео: 720x304 (2.37:1), 23.976 fps, XviD build 73 ~1893 kbps avg, 0.36 bit/pixel
Аудио 1: 48 kHz, AC3 Dolby Digital, 2/0 (L,R) ch, ~192 kbps - VO
Аудио 2: 48 kHz, AC3 Dolby Digital, 2/0 (L,R) ch, ~192 kbps - оригинал

MediaInfo

D:\ОЗВУЧКА\СМИТ\Razumnoe.somnenie.2014.ViruseProject.avi
General
Complete name : D:\ОЗВУЧКА\СМИТ\Razumnoe.somnenie.2014.ViruseProject.avi
Format : AVI
Format/Info : Audio Video Interleave
File size : 1.46 GiB
Duration : 1h 31mn
Overall bit rate : 2 292 Kbps
Writing application : VirtualDubMod 1.5.10.2 (build 2540/release)
Writing library : VirtualDubMod build 2540/release
Video #0
ID : 0
Format : MPEG-4 Visual
Format profile : Advanced Simple@L5
Format settings, BVOP : 2
Format settings, QPel : No
Format settings, GMC : No warppoints
Format settings, Matrix : Custom
Codec ID : XVID
Codec ID/Hint : XviD
Duration : 1h 31mn
Bit rate : 1 894 Kbps
Width : 720 pixels
Height : 304 pixels
Display aspect ratio : 2.35:1
Frame rate : 23.976 fps
Color space : YUV
Chroma subsampling : 4:2:0
Bit depth : 8 bits
Scan type : Progressive
Compression mode : Lossy
Bits/(Pixel*Frame) : 0.361
Stream size : 1.21 GiB (83%)
Writing library : XviD 73
Audio #1
ID : 1
Format : AC-3
Format/Info : Audio Coding 3
Mode extension : CM (complete main)
Format settings, Endianness : Big
Codec ID : 2000
Duration : 1h 31mn
Bit rate mode : Constant
Bit rate : 192 Kbps
Channel(s) : 2 channels
Channel positions : Front: L R
Sampling rate : 48.0 KHz
Bit depth : 16 bits
Compression mode : Lossy
Stream size : 125 MiB (8%)
Alignment : Split accross interleaves
Interleave, duration : 42 ms (1.00 video frame)
Interleave, preload duration : 500 ms
Audio #2
ID : 2
Format : AC-3
Format/Info : Audio Coding 3
Mode extension : CM (complete main)
Format settings, Endianness : Big
Codec ID : 2000
Duration : 1h 31mn
Bit rate mode : Constant
Bit rate : 192 Kbps
Channel(s) : 2 channels
Channel positions : Front: L R
Sampling rate : 48.0 KHz
Bit depth : 16 bits
Compression mode : Lossy
Stream size : 125 MiB (8%)
Alignment : Split accross interleaves
Interleave, duration : 42 ms (1.00 video frame)
Interleave, preload duration : 500 ms

Скриншоты

 
Показать сообщения:    

Текущее время: Сегодня 15:59

Часовой пояс: GMT



Вы не можете начинать темы
Вы не можете отвечать на сообщения
Вы не можете редактировать свои сообщения
Вы не можете удалять свои сообщения
Вы не можете голосовать в опросах
Вы не можете прикреплять файлы к сообщениям
Вы не можете скачивать файлы