Разумное сомнение / Reasonable Doubt (Питер Хауит / Peter Howitt) [2014, Германия, Канада, Триллер, HDRip] MVO (Позитив)

 
Автор Сообщение

Создавать темы 13-Июл-2014 16:38

Разумное сомнение / Reasonable Doubt
Страна: Германия, Канада
Жанр: Триллер
Год выпуска: 2014
Продолжительность: 01:31:18
Перевод: Профессиональный (многоголосый закадровый) Позитив
Cубтитры: нет
Режиссер: Питер Хауит / Peter Howitt
В ролях: Доминик Купер, Сэмюэл Л. Джексон, Эрин Карплак, Глория Рубен, Райан Роббинс, Дилан Тейлор, Лэйн Стайлз, Филипп Бреннинкмейер, Джон Б. Лоу, Джессика Бёрлсон
Описание: Жизнь окружного прокурора переворачивается с ног на голову, когда он оказывается вовлеченным в перестрелку и за его преступление другого человека арестовывают и обвиняют в убийстве.
Сэмпл: http://multi-up.com/968186
Качество видео: HDRip
Формат видео: AVI
Видео: XviD, 1901 Кбит/с, 720x304, 23,976 кадра/сек
Аудио: AC3, 2 ch, 224 Кбит/с, 48,0 КГц

MediaInfo

I:\Разумное сомнение\Разумное сомнение 2014.P.HDRip.1400Mb.avi
General
Complete name : I:\Разумное сомнение\Разумное сомнение 2014.P.HDRip.1400Mb.avi
Format : AVI
Format/Info : Audio Video Interleave
File size : 1.36 GiB
Duration : 1h 31mn
Overall bit rate : 2 135 Kbps
Writing application : VirtualDubMod 1.5.10.2 (build 2540/release)
Writing library : VirtualDubMod build 2540/release
Video #0
ID : 0
Format : MPEG-4 Visual
Format profile : Advanced Simple@L5
Format settings, BVOP : 2
Format settings, QPel : No
Format settings, GMC : No warppoints
Format settings, Matrix : Default (MPEG)
Codec ID : XVID
Codec ID/Hint : XviD
Duration : 1h 31mn
Bit rate : 1 901 Kbps
Width : 720 pixels
Height : 304 pixels
Display aspect ratio : 2.35:1
Frame rate : 23.976 fps
Color space : YUV
Chroma subsampling : 4:2:0
Bit depth : 8 bits
Scan type : Progressive
Compression mode : Lossy
Bits/(Pixel*Frame) : 0.362
Stream size : 1.21 GiB (89%)
Writing library : XviD 1.2.1 (UTC 2008-12-04)
Audio #1
ID : 1
Format : AC-3
Format/Info : Audio Coding 3
Mode extension : CM (complete main)
Format settings, Endianness : Big
Codec ID : 2000
Duration : 1h 31mn
Bit rate mode : Constant
Bit rate : 224 Kbps
Channel count : 2 channels
Channel positions : Front: L R
Sampling rate : 48.0 KHz
Bit depth : 16 bits
Compression mode : Lossy
Stream size : 146 MiB (10%)
Alignment : Split accross interleaves
Interleave, duration : 42 ms (1.00 video frame)
Interleave, preload duration : 500 ms

Скриншот c названием фильма

Скриншоты

 
Показать сообщения:    

Текущее время: Сегодня 21:02

Часовой пояс: GMT



Вы не можете начинать темы
Вы не можете отвечать на сообщения
Вы не можете редактировать свои сообщения
Вы не можете удалять свои сообщения
Вы не можете голосовать в опросах
Вы не можете прикреплять файлы к сообщениям
Вы не можете скачивать файлы