Разумное сомнение / Reasonable Doubt (Питер Хауит / Peter Howitt) [2014, Германия, Канада, триллер, криминал, BDRip-AVC] MVO + VO (Kyberpunk) + Original (Eng) + Sub (Rus, Eng)

 
Автор Сообщение

Создавать темы 13-Июл-2014 16:36

Разумное сомнение / Reasonable Doubt
Страна: Германия, Канада
Жанр: триллер, криминал
Год выпуска: 2014
Продолжительность: 01:31:18
Перевод#1: Профессиональный (многоголосый закадровый) | Позитив
Перевод#2: Одноголосый закадровый, М. Яроцкий aka Kyberpunk
Cубтитры: русские (notabenoid), английские
Оригинальная аудиодорожка: английский
Режиссер: Питер Хауит / Peter Howitt
В ролях: Доминик Купер, Сэмюэл Л. Джексон, Эрин Карплак, Глория Рубен, Райан Роббинс, Дилан Тейлор, Лэйн Стайлз, Филипп Бреннинкмейер, Джон Б. Лоу, Джессика Бёрлсон
Описание: Жизнь окружного прокурора переворачивается с ног на голову, когда он попадает в аварию и сбивает человека, а за его преступление другого человека арестовывают и обвиняют в убийстве...

Доп. информация: Позитив слабый, срезан на 15kHz, но другого пока нет к сож.
Исходник: Разумное сомнение / Reasonable Doubt (2014) BDRemux
Качество видео: BDRip-AVC | sample
Формат видео: MKV
Видео кодек: x264
Видео: AVC 1152x480 (2.40:1), 23.976 fps, ~2300 Kbps, 0.18 bit/pixel
Аудио #1: Russian AC3 2ch 48kHz 224Kbps | MVO Позитив
Аудио #2: Russian AC3 6ch 48kHz 448Kbps | VO Яроцкий
Аудио #3: English AC3 6ch 48kHz 448Kbps | Original
Формат субтитров: softsub (SRT)
Главы: есть

MediaInfo | x264x264

--[Information] [18.06.2014 21:34:19] raw [info]: 1152x480p 1:1 @ 24000/1001 fps (cfr)
--[Information] [19.06.2014 7:44:55] x264 [info]: frame I:928 Avg QP:13.96 size: 82638
--[Information] [19.06.2014 7:44:56] x264 [info]: frame P:21886 Avg QP:14.84 size: 28571
--[Information] [19.06.2014 7:44:56] x264 [info]: frame B:108534 Avg QP:16.23 size: 8202
--[Information] [19.06.2014 7:44:56] x264 [info]: consecutive B-frames: 1.2% 0.9% 3.2% 7.6% 13.3% 40.0% 7.3% 2.8% 2.8% 2.1% 2.0% 9.7% 1.8% 1.4% 1.2% 0.9% 1.7%
--[Information] [19.06.2014 7:44:57] x264 [info]: kb/s:2325.07
General
Complete name : E:\...\Reasonable.Doubt.2014.BDRip.x264.AC3.Rus.Eng-E76.mkv
Format : Matroska
Format version : Version 2
File size : 2.20 GiB
Duration : 1h 31mn
Overall bit rate : 3 448 Kbps
Movie name : Reasonable.Doubt.2014.BDRip.x264.AC3.Rus.Eng-E76
Encoded date : UTC 2014-06-19 10:35:21
Writing application : mkvmerge v6.5.0 ('Isn't she lovely') built on Oct 20 2013 12:50:05
Writing library : libebml v1.3.0 + libmatroska v1.4.1
Video
ID : 1
Format : AVC
Format/Info : Advanced Video Codec
Format profile : High@L4.1
Format settings, CABAC : Yes
Format settings, ReFrames : 15 frames
Codec ID : V_MPEG4/ISO/AVC
Bit rate : 2 259 Kbps
Width : 1 152 pixels
Height : 480 pixels
Display aspect ratio : 2.40:1
Frame rate mode : Constant
Color space : YUV
Chroma subsampling : 4:2:0
Bit depth : 8 bits
Scan type : Progressive
Title : Encode by E76
Writing library : x264 core 142 r2431kMod ac76440
Encoding settings : cabac=1 / ref=15 / deblock=1:-3:-3 / analyse=0x3:0x113 / me=umh / subme=11 / psy=1 / fade_compensate=0.00 / psy_rd=1.00:0.00 / mixed_ref=1 / me_range=48 / chroma_me=1 / trellis=2 / 8x8dct=1 / cqm=0 / deadzone=21,11 / fast_pskip=1 / chroma_qp_offset=-2 / threads=6 / lookahead_threads=1 / sliced_threads=0 / nr=0 / decimate=1 / interlaced=0 / bluray_compat=0 / constrained_intra=0 / fgo=0 / bframes=16 / b_pyramid=2 / b_adapt=2 / b_bias=0 / direct=1 / weightb=1 / open_gop=0 / weightp=2 / keyint=240 / keyint_min=23 / scenecut=40 / intra_refresh=0 / rc_lookahead=0 / rc=crf / mbtree=0 / crf=16.5000 / qcomp=0.60 / qpmin=0 / qpmax=69 / qpstep=4 / vbv_maxrate=50000 / vbv_bufsize=62500 / crf_max=0.0 / nal_hrd=none / filler=0 / ip_ratio=1.40 / pb_ratio=1.30 / aq=1:1.00 / zones=115145,131347,q=30
Language : English
Default : Yes
Forced : No
Matrix coefficients : BT.709
Audio #1
ID : 2
Format : AC-3
Format/Info : Audio Coding 3
Mode extension : CM (complete main)
Format settings, Endianness : Big
Codec ID : A_AC3
Duration : 1h 31mn
Bit rate mode : Constant
Bit rate : 224 Kbps
Channel(s) : 2 channels
Channel positions : Front: L R
Sampling rate : 48.0 KHz
Bit depth : 16 bits
Compression mode : Lossy
Stream size : 146 MiB (6%)
Title : MVO Pozitiv
Language : Russian
Default : Yes
Forced : No
Audio #2
ID : 3
Format : AC-3
Format/Info : Audio Coding 3
Mode extension : CM (complete main)
Format settings, Endianness : Big
Codec ID : A_AC3
Duration : 1h 31mn
Bit rate mode : Constant
Bit rate : 448 Kbps
Channel(s) : 6 channels
Channel positions : Front: L C R, Side: L R, LFE
Sampling rate : 48.0 KHz
Bit depth : 16 bits
Compression mode : Lossy
Stream size : 293 MiB (13%)
Title : VO Kyberpunk
Language : Russian
Default : No
Forced : No
Audio #3
ID : 4
Format : AC-3
Format/Info : Audio Coding 3
Mode extension : CM (complete main)
Format settings, Endianness : Big
Codec ID : A_AC3
Duration : 1h 31mn
Bit rate mode : Constant
Bit rate : 448 Kbps
Channel(s) : 6 channels
Channel positions : Front: L C R, Side: L R, LFE
Sampling rate : 48.0 KHz
Bit depth : 16 bits
Compression mode : Lossy
Stream size : 293 MiB (13%)
Title : Original
Language : English
Default : No
Forced : No
Text #1
ID : 5
Format : UTF-8
Codec ID : S_TEXT/UTF8
Codec ID/Info : UTF-8 Plain Text
Title : notabenoid
Language : Russian
Default : No
Forced : No
Text #2
ID : 6
Format : UTF-8
Codec ID : S_TEXT/UTF8
Codec ID/Info : UTF-8 Plain Text
Language : English
Default : No
Forced : No
Text #3
ID : 7
Format : UTF-8
Codec ID : S_TEXT/UTF8
Codec ID/Info : UTF-8 Plain Text
Title : SDH
Language : English
Default : No
Forced : No
Menu
00:00:00.000 : :00:00:00.000
00:05:23.990 : :00:05:23.990
...
01:17:59.383 : :01:17:59.383

Скриншоты




vs source
=> Новые релизы в AVC | | Заказ рипов в AVC
 
Показать сообщения:    

Текущее время: Сегодня 02:40

Часовой пояс: GMT



Вы не можете начинать темы
Вы не можете отвечать на сообщения
Вы не можете редактировать свои сообщения
Вы не можете удалять свои сообщения
Вы не можете голосовать в опросах
Вы не можете прикреплять файлы к сообщениям
Вы не можете скачивать файлы