Разрушитель / The Demolisher (2015) BDRip 720p | L1

 
Автор Сообщение

достали все ®

Пол:

Стаж: 1 год 8 месяцев

Сообщений: 6592



Награды: 12 (Подробнее)

Mega Releaser 1 (Количество: 1) Mega Seeder 4 (Количество: 1) Mega Releaser 3 (Количество: 1)
Торрент-статистика

Создавать темы 02-Апр-2016 11:46

[Цитировать]

Информация о фильме
Название: Разрушитель
Оригинальное название: The Demolisher
Год выхода: 2015
Жанр: ужасы, боевик, триллер
Режиссер: Филип Каррер
В ролях: Райан Баррет, Тиана Нори, Джессика Вано, Дункан МакЛеллан, Джеррит Сеперс, Брюс Тернер, Дуан Фрэй, Andrew Bussey, Оуэн Фоусет, Рич Пьёнтковский
О фильме: Брюс, в результате несчастного случая с его женой, начинает смотреть на мир иначе. Он все еще обычный ремонтник, но несправедливость и чувство безысходности толкают его на крайний шаг. Внутренняя ярость вырывается наружу на темных улицах, уводя его все дальше в мир экстремального насилия.

Выпущено: Канада / Latefox Pictures
Продолжительность: 01:25:38
Озвучивание: Любительское (одноголосое) [МЕГАПЫХАРЬ], перевод [МЕГАПЫХАРЬ]
Файл
Формат: MKV
Качество: BDRip 720p
Видео: MPEG-4 AVC, 5801 kb/s, 1280x544
Аудио: Russian: AC3, 192 kb/s (2 ch) / English: DTS, 1509 kb/s (6 ch)

MI

Format : Matroska
Format version : Version 2
File size : 4.49 GiB
Duration : 1h 25mn
Overall bit rate : 7 500 Kbps
Encoded date : UTC 2016-04-02 10:03:47
Writing application : mkvmerge v7.8.0 ('River Man') 32bit built on Apr 3 2015 12:11:22
Writing library : libebml v1.3.1 + libmatroska v1.4.2
Video
ID : 1
Format : AVC
Format/Info : Advanced Video Codec
Format profile : High@L4.1
Format settings, CABAC : Yes
Format settings, ReFrames : 5 frames
Codec ID : V_MPEG4/ISO/AVC
Duration : 1h 25mn
Bit rate : 5 801 Kbps
Width : 1 280 pixels
Height : 544 pixels
Display aspect ratio : 2.35:1
Frame rate mode : Constant
Frame rate : 23.976 fps
Color space : YUV
Chroma subsampling : 4:2:0
Bit depth : 8 bits
Scan type : Progressive
Bits/(Pixel*Frame) : 0.347
Stream size : 3.38 GiB (75%)
Writing library : x264 core 148 r2665 a01e339
Encoding settings : cabac=1 / ref=5 / deblock=1:0:0 / analyse=0x3:0x113 / me=umh / subme=7 / psy=1 / psy_rd=1.00:0.00 / mixed_ref=1 / me_range=16 / chroma_me=1 / trellis=1 / 8x8dct=1 / cqm=0 / deadzone=21,11 / fast_pskip=0 / chroma_qp_offset=-2 / threads=12 / lookahead_threads=2 / sliced_threads=0 / nr=0 / decimate=1 / interlaced=0 / bluray_compat=0 / constrained_intra=0 / bframes=3 / b_pyramid=2 / b_adapt=2 / b_bias=0 / direct=3 / weightb=1 / open_gop=0 / weightp=2 / keyint=250 / keyint_min=23 / scenecut=40 / intra_refresh=0 / rc_lookahead=50 / rc=2pass / mbtree=1 / bitrate=5801 / ratetol=1.0 / qcomp=0.60 / qpmin=0 / qpmax=69 / qpstep=4 / cplxblur=20.0 / qblur=0.5 / ip_ratio=1.40 / aq=1:1.00
Language : English
Default : Yes
Forced : No
Audio #1
ID : 2
Format : AC-3
Format/Info : Audio Coding 3
Mode extension : CM (complete main)
Format settings, Endianness : Big
Codec ID : A_AC3
Duration : 1h 25mn
Bit rate mode : Constant
Bit rate : 192 Kbps
Channel(s) : 2 channels
Channel positions : Front: L R
Sampling rate : 48.0 KHz
Bit depth : 16 bits
Compression mode : Lossy
Stream size : 118 MiB (3%)
Language : Russian
Default : Yes
Forced : No
Audio #2
ID : 3
Format : DTS
Format/Info : Digital Theater Systems
Mode : 16
Format settings, Endianness : Big
Codec ID : A_DTS
Duration : 1h 25mn
Bit rate mode : Constant
Bit rate : 1 509 Kbps
Channel(s) : 6 channels
Channel positions : Front: L C R, Side: L R, LFE
Sampling rate : 48.0 KHz
Bit depth : 24 bits
Compression mode : Lossy
Stream size : 924 MiB (20%)
Language : English
Default : No
Forced : No

Скриншоты



[Профиль] [ЛС]
Кто просматривает тему:

Форум Тема Автор Размер
Action Kabus 22 + Kabus 22: Demolition Day / Зона 22: Территория страха + Зона 22: День разрушения [L] [RUS / RUS] (2007-2008) TorrentFilm 1.39 GB
Документальные HD Белый свет - Черный дождь: Разрушение Хиросимы и Нагасаки / White Light - Black Rain: The Destruction of Hiroshima and Nagasaki (Стивен Оказаки / Steven Okazaki) [2007, документальный, катастрофы,... TorrentFilm 4.27 GB
Фильмы 2011 года Макс – разрушитель: Кольцо огня / Max Havoc: Ring of Fire (Терри Ингрэм / Terry Ingram) [2006, США, боевик, SATRip] MVO TorrentFilm 1.36 GB
Фильмы (HD DVD, Blu-ray и BDRemux) Разрушение / Demolition (2015) BDRemux 1080p от ExKinoRay | Лицензия достали все 16.02 GB
Фильмы (HD Rips | 720p, 1080p) Разрушение / Demolition (2015) BDRip 1080p от ExKinoRay | Лицензия Russian Mafia 11.45 GB
Фильмы (HD Rips | 720p, 1080p) Разрушение / Demolition (2015) BDRip 720 | Лицензия достали все 6.43 GB
Фильмы 2016 года Разрушение / Demolition (2015) BDRip | Лицензия достали все 1.46 GB
Фильмы 2015 года Разрушение / Demolition (2015) BDRip от ExKinoRay | RUS Transfer | Лицензия Russian Mafia 1.46 GB
Показать сообщения:    

Текущее время: Сегодня 10:01

Часовой пояс: GMT



Вы не можете начинать темы
Вы не можете отвечать на сообщения
Вы не можете редактировать свои сообщения
Вы не можете удалять свои сообщения
Вы не можете голосовать в опросах
Вы не можете прикреплять файлы к сообщениям
Вы не можете скачивать файлы