Разрушение / Demolition (2015) WEB-DL 1080p | L

 
Автор Сообщение

BOSS ®

Пол:

Стаж: 2 года 1 месяц

Сообщений: 3712

Откуда: ODESSA



Награды: 20 (Подробнее)

Mega Seeder 1 (Количество: 1) Top Seeder 3 (Количество: 1) Top Seeder 4 (Количество: 1)
Торрент-статистика

Создавать темы 27-Июн-2016 17:19

[Цитировать]

Информация о фильме
Название: Разрушение
Оригинальное название: Demolition
Год выпуска: 2015
Страна: США
Жанр: драма, комедия-Перевод: Любительский многоголосый (СПД)
Примечание: Релиз без рекламы
Субтитры: английские (Full)
Продолжительность: 01:41:23-Режиссер: Жан-Марк Валле
В ролях: Джейк Джилленхол (Davis), Наоми Уоттс (Karen), Крис Купер (Phil), Джуда Льюис (Chris), С.Дж. Уилсон (Carl), Полли Дрэйпер (Margot), Мэлаки Клири (Davis' Dad), Дебра Монк (Davis' Mom), Хезер Линд (Julia), Уасс М. Стивенс (Jimmy), Блэйр Брукс (Amy), Бен Коул (Steven)-Описание:
Когда банкир Дэвис узнал, что его жена мертва, он захотел купить шоколадный батончик в торговом автомате, но тот оказался сломан. Переживая горе, Дэвис начинает крушить дом, мебель, машину, строчить жалобы в обслуживающую торговые автоматы фирму. А в письмах он... рассказывает историю своей любви. Скоро ему отвечает Карен, менеджер компании, но сможет ли она спасти Дэвиса из эмоциональной пропасти?..-Рейтинг:

MPAA: R - Лицам до 17 лет обязательно присутствие взрослого-Качество: WEB-DL 1080p
Формат: MKV
Видео: AVC, 1916x814 (2.35:1), 4320 kbps, 23,976 fps, 0,116 bpp
Аудио №1: русский / AC3 / 5.1 / 48 kHz / 384 kbps / 16 bit |MVO|
Аудио №2: английский / AC3 / 5.1 / 48 kHz / 384 kbps / 16 bit
Навигация по главам: есть
Сэмпл-

ОтчетМедиаИнфо

General
Unique ID : 191107580879293188249312107209041863659 (0x8FC5FB33F3DD04C8B3C2C3D8898B63EB)
Complete name : E:Razrushenie 2015 1080p WEB-DL.mkv
Format : Matroska
Format version : Version 4 / Version 2
File size : 3.68 GiB
Duration : 1h 41mn
Overall bit rate : 5 191 Kbps
Encoded date : UTC 2016-06-27 16:15:11
Writing application : mkvmerge v9.2.0 ('Photograph') 64bit
Writing library : libebml v1.3.3 + libmatroska v1.4.4
DURATION : 01:39:27.894000000
NUMBER_OF_FRAMES : 1176
NUMBER_OF_BYTES : 38151
_STATISTICS_WRITING_APP : mkvmerge v9.2.0 ('Photograph') 64bit
_STATISTICS_WRITING_DATE_UTC : 2016-06-27 16:15:11
_STATISTICS_TAGS : BPS DURATION NUMBER_OF_FRAMES NUMBER_OF_BYTES
Video
ID : 1
Format : AVC
Format/Info : Advanced Video Codec
Format profile : High@L4.0
Format settings, CABAC : Yes
Format settings, ReFrames : 5 frames
Codec ID : V_MPEG4/ISO/AVC
Duration : 1h 41mn
Bit rate : 4 320 Kbps
Width : 1 916 pixels
Height : 814 pixels
Display aspect ratio : 2.35:1
Frame rate : 23.976 fps
Color space : YUV
Chroma subsampling : 4:2:0
Bit depth : 8 bits
Scan type : Progressive
Bits/(Pixel*Frame) : 0.116
Stream size : 3.06 GiB (83%)
Language : English
Default : Yes
Forced : No
Color primaries : BT.709-5, BT.1361, IEC 61966-2-4, SMPTE RP177
Transfer characteristics : BT.709-5, BT.1361
Matrix coefficients : BT.709-5, BT.1361, IEC 61966-2-4 709, SMPTE RP177
Audio #1
ID : 2
Format : AC-3
Format/Info : Audio Coding 3
Mode extension : CM (complete main)
Codec ID : A_AC3
Duration : 1h 41mn
Bit rate mode : Constant
Bit rate : 384 Kbps
Channel(s) : 6 channels
Channel positions : Front: L C R, Side: L R, LFE
Sampling rate : 48.0 KHz
Bit depth : 16 bits
Compression mode : Lossy
Stream size : 278 MiB (7%)
Title : MVO
Language : Russian
Default : Yes
Forced : No
Audio #2
ID : 3
Format : AC-3
Format/Info : Audio Coding 3
Mode extension : CM (complete main)
Codec ID : A_AC3
Duration : 1h 41mn
Bit rate mode : Constant
Bit rate : 384 Kbps
Channel(s) : 6 channels
Channel positions : Front: L C R, Side: L R, LFE
Sampling rate : 48.0 KHz
Bit depth : 16 bits
Compression mode : Lossy
Stream size : 278 MiB (7%)
Title : Original
Language : English
Default : No
Forced : No
Text
ID : 4
Format : UTF-8
Codec ID : S_TEXT/UTF8
Codec ID/Info : UTF-8 Plain Text
Title : Full
Language : English
Default : No
Forced : No
Menu
00:00:00.000 : en:Chapter 01
00:03:09.814 : en:Chapter 02
00:07:28.280 : en:Chapter 03
00:11:11.670 : en:Chapter 04
00:15:55.995 : en:Chapter 05
00:19:23.035 : en:Chapter 06
00:23:14.766 : en:Chapter 07
00:28:21.322 : en:Chapter 08
00:32:39.038 : en:Chapter 09
00:37:16.690 : en:Chapter 10
00:42:31.379 : en:Chapter 11
00:47:09.949 : en:Chapter 12
00:51:39.802 : en:Chapter 13
00:56:23.001 : en:Chapter 14
01:00:27.286 : en:Chapter 15
01:04:41.873 : en:Chapter 16
01:09:10.182 : en:Chapter 17
01:14:08.438 : en:Chapter 18
01:18:14.517 : en:Chapter 19
01:22:22.348 : en:Chapter 20
01:26:28.469 : en:Chapter 21
01:29:15.469 : en:Chapter 22
01:33:43.612 : en:Chapter 23
01:36:41.831 : en:Chapter 24

Скриншоты

[Профиль] [ЛС]
Кто просматривает тему:

Форум Тема Автор Размер
Action Kabus 22 + Kabus 22: Demolition Day / Зона 22: Территория страха + Зона 22: День разрушения [L] [RUS / RUS] (2007-2008) TorrentFilm 1.39 GB
Документальные HD Белый свет - Черный дождь: Разрушение Хиросимы и Нагасаки / White Light - Black Rain: The Destruction of Hiroshima and Nagasaki (Стивен Оказаки / Steven Okazaki) [2007, документальный, катастрофы,... TorrentFilm 4.27 GB
Фильмы 2011 года Макс – разрушитель: Кольцо огня / Max Havoc: Ring of Fire (Терри Ингрэм / Terry Ingram) [2006, США, боевик, SATRip] MVO TorrentFilm 1.36 GB
Фильмы (HD DVD, Blu-ray и BDRemux) Разрушение / Demolition (2015) BDRemux 1080p от ExKinoRay | Лицензия достали все 16.02 GB
Фильмы (HD Rips | 720p, 1080p) Разрушение / Demolition (2015) BDRip 1080p от ExKinoRay | Лицензия Russian Mafia 11.45 GB
Фильмы (HD Rips | 720p, 1080p) Разрушение / Demolition (2015) BDRip 720 | Лицензия достали все 6.43 GB
Фильмы 2016 года Разрушение / Demolition (2015) BDRip | Лицензия достали все 1.46 GB
Фильмы 2015 года Разрушение / Demolition (2015) BDRip от ExKinoRay | RUS Transfer | Лицензия Russian Mafia 1.46 GB
Показать сообщения:    

Текущее время: Сегодня 04:58

Часовой пояс: GMT



Вы не можете начинать темы
Вы не можете отвечать на сообщения
Вы не можете редактировать свои сообщения
Вы не можете удалять свои сообщения
Вы не можете голосовать в опросах
Вы не можете прикреплять файлы к сообщениям
Вы не можете скачивать файлы