Разрешите тебя поцеловать... на свадьбе (Мария Сергеенкова) [2013, Россия, комедия, DVD5] R5 Original Rus

 
Автор Сообщение

reversefile ®

Пол:

Стаж: 4 года 5 месяцев

Сообщений: 842

Откуда: ReverseFile.org



Награды: Нет

Торрент-статистика

Создавать темы 25-Июл-2014 01:06

[Цитировать]

-Разрешите тебя поцеловать... на свадьбе -Страна: Россия
Студия: Грин-фильм
Жанр: комедия
Год выпуска: 2013
Дата выхода DVD: 12 ноября 2013, «Lizard Cinema Trade»
Продолжительность: 01:28:05
Перевод: Оригинал [Лицензия]
Cубтитры: нет
Оригинальная аудиодорожка: русский-Режиссер: Мария Сергеенкова-В ролях: Мария Куликова, Игорь Лифанов, Серафима Низовская, Борис Щербаков, Михаил Трясоруков, Сергей Лосев...-Описание: Прошел год после событий фильма «Разрешите тебя поцеловать…снова», в котором Власов с честью вышел из истории с «генеральской внучкой». Теперь он восстановлен в звании полковника. Генерал же готовится к «повышению» и благополучному выходу на пенсию. Только вот единственная часть портит ему все показатели и ставит под угрозу «заслуженный отдых». Есть только один человек, способный в кратчайшие сроки навести в подразделении порядок. Григория Власова и Наташу переводят в Санкт-Петербург!
Власов говорит о том, что теперь на новом месте службы и в новой квартире можно и про свадьбу подумать. «Разрешите пригласить тебя в ЗАГС», — заявляет он. Но сначала нужно навести в части порядок. Вверенное ему подразделение находится просто в плачевном состоянии. Проверка может нагрянуть буквально в любой момент, а без успешных оценок «плакала» и новая квартира, и жизнь в «северной столице» и пенсия у генерала. Словом, пройти проверку нужно только «на пять»! Наш герой вынужден разрываться между наведением порядка в полку и подготовкой к свадьбе, ведь на все это у него есть только неделя! Ситуация усложняется когда в полку появляется проверяющий, полковник Светлана Иваненко — бывшая жена Григория Власова. Тут уж Григорию точно никакого «спуску» не будет! Свадьба под угрозой срыва, между Наташей и Власовым летают «гром и молнии»… «Отменяй, Власов, свадьбу!» — заявляет Иваненко. Не тут-то было! Наш герой преодолеет все преграды, снова докажет свою любовь, с честью решит все проблемы и, наконец, сможет поцеловать свою невесту… на свадьбе!
-Бонусы: нет- -Качество: DVD5 R5
Формат: DVD-Video
Видео кодек: MPEG2
Аудио кодек: AC3
Видео: PAL 16:9 (720x576(0.588)) MPEG Video, 25,000 кадр/сек, 6092 Кбит/сек
Аудио: Russian (Dolby AC3, 2 ch) 256 Кбит/сек, 48,0 КГц--

DVDInfo

Title: Razreshite.tebya.pocelovatj.na.svadjbe.2013.DVD5
Size: 4.04 Gb ( 4 235 568,00 KBytes ) - DVD-5
Enabled regions: 1, 2, 3, 4, 5, 6, 7, 8
VTS_01 :
Play Length: 00:00:25
Video: PAL 4:3 (720x576) VBR
Audio:
Russian (Dolby AC3, 6 ch)
VTS_02 :
Play Length: 01:28:05
Video: PAL 16:9 (720x576) VBR, Auto Pan&Scan, Auto Letterboxed
Audio:
Russian (Dolby AC3, 2 ch)
* Menus Information *
VIDEO_TS Menu
Video:
PAL 4:3 (720x576) VBR
Audio:
Not specified (Dolby AC3, 1 ch)
English Language Unit :
Title Menu
VTS_01 Menu
Video:
PAL 4:3 (720x576) VBR
Audio:
Not specified (Dolby AC3, 2 ch)
English Language Unit :
Root Menu
Chapter (PTT) Menu
VTS_02 Menu
Video:
PAL 4:3 (720x576) VBR
Audio:
Not specified (Dolby AC3, 1 ch)
English Language Unit :
Root Menu
Chapter (PTT) Menu

MediaInfo

Общее
Полное имя : D:\Новинки 2014\Razreshite.tebya.pocelovatj.na.svadjbe.2013.DVD5\VIDEO_TS\VTS_02_2.VOB
Формат : MPEG-PS
Размер файла : 1024 Мбайт
Продолжительность : 22 м.
Режим общего битрейта : Переменный
Общий поток : 6477 Кбит/сек
Видео
Идентификатор : 224 (0xE0)
Формат : MPEG Video
Версия формата : Version 2
Профиль формата : Main@Main
Параметр BVOP формата : Да
Параметр матрицы формата : Выборочная
Параметр GOP формата : Variable
Продолжительность : 22 м.
Вид битрейта : Переменный
Битрейт : 6092 Кбит/сек
Максимальный битрейт : 8000 Кбит/сек
Ширина : 720 пикселей
Высота : 576 пикселей
Соотношение сторон : 16:9
Частота кадров : 25,000 кадров/сек
Стандарт вещания : PAL
Цветовое пространство : YUV
Субдискретизация насыщенности : 4:2:0
Битовая глубина : 8 бит
Тип развёртки : Чересстрочная
Порядок развёртки : Верхнее поле первое
Метод сжатия : С потерями
Бит/(Пиксели*Кадры) : 0.588
Временной код первого кадра : 01:22:43:05
Оригинал временного кода : Group of pictures header
Размер потока : 963 Мбайт (94%)
Аудио
Идентификатор : 189 (0xBD)-128 (0x80)
Формат : AC-3
Формат/Информация : Audio Coding 3
Расширение режима : CM (complete main)
Параметр Endianness формата : Big
Режим смешивания : DVD-Video
Продолжительность : 22 м.
Вид битрейта : Постоянный
Битрейт : 256 Кбит/сек
Каналы : 2 канала
Расположение каналов : Front: L R
Частота : 48,0 КГц
Битовая глубина : 16 бит
Метод сжатия : С потерями
Задержка видео : -560 мс.
Размер потока : 40,5 Мбайт (4%)

Скриншоты меню

Скриншоты фильма


-
-
[Профиль] [ЛС]

Создавать темы 06-Авг-2015 23:40 (спустя 1 год)

Топик был перенесен из форума Фильмы (HD DVD, Blu-ray и BDRemux) в форум Фильмы (DVD 5/9)
sergej644
 
Показать сообщения:    

Текущее время: Сегодня 06:28

Часовой пояс: GMT



Вы не можете начинать темы
Вы не можете отвечать на сообщения
Вы не можете редактировать свои сообщения
Вы не можете удалять свои сообщения
Вы не можете голосовать в опросах
Вы не можете прикреплять файлы к сообщениям
Вы не можете скачивать файлы