Разлом Сан-Андреас / San Andreas (2015) BDRip 720p | Лицензия

 
Автор Сообщение

достали все ®

Пол:

Стаж: 1 год 8 месяцев

Сообщений: 6524



Награды: 12 (Подробнее)

За внесенный вклад в развитие сайта (Количество: 1) Mega Releaser 3 (Количество: 1) Mega Releaser 2 (Количество: 1)
Торрент-статистика

Создавать темы 25-Сен-2015 03:44

[Цитировать]

Информация о фильме
Название: Разлом Сан-Андреас
Оригинальное название: San Andreas
Год выпуска: 2015
Жанр: Боевик, триллер, драма
Выпущено: США, Flynn Picture Company, New Line Cinema, Village Roadshow Pictures, Warner Bros. Pictures
Режиссер: Брэд Пейтон
В ролях: Дуэйн Джонсон, Карла Гуджино, Александра Даддарио, Йоан Гриффит, Арчи Панджаби, Пол Джаматти, Хьюго Джонстон-Барт, Арт Паркинсон, Уилл Юн Ли, Кайли Миноуг, Колтон Хэйнс, Тодд Уильямс, Мэтт Джералд, Алек Утгофф, Марисса Нейтлинг, Морган Гриффин, Бриэнн Хилл, Лоуренс Кой, Фиона Пресс, Дэннис Корд
О фильме:
О фильме: Рэй — пилот спасательного вертолета, который всю свою жизнь помогал другим людям. За все время работы он насмотрелся на множество жутких вещей и не раз оказывался в очень сложных ситуациях. Несмотря на все преграды он спешил на помощь, даже не предполагая, что самое страшное ждет его впереди. На Калифорнию обрушивается мощное землетрясение, в результате которого гибнут сотни людей и образовывается огромная трещина в земле. Во всеобщем хаосе Рэю предстоит отыскать свою дочь, но сделать это будет очень непросто. В надежде, что его ребенок все еще жив, он отправляется в смертельно опасное путешествие через весь штат…
Файл
Качество: BDRip (720p)
Видео: MPEG-4 AVC, 7957 Кбит/с, 1280x532
Аудио: Русский (AC3, 6 ch, 448 Кбит/с), английский (DTS, 6 ch, 1510 Кбит/с), (AC3, 2 ch, 192 Кбит/с)
Размер: 8.24 ГБ
Продолжительность: 01:54:24
Перевод: Дублированный [лицензия]
Субтитры: Русские, английские

MI

General
Unique ID : 222970151288308745788229688369500660559 (0xA7BE7D361EF87B2A995B25897C90234F)
Complete name : San.Andreas.2015.720p.BluRay.Rus.Eng.mkv
Format : Matroska
Format version : Version 4 / Version 2
File size : 8.24 GiB
Duration : 1h 54mn
Overall bit rate : 10.3 Mbps
Movie name : San Andreas (2015) - Release for HDCLUB
Encoded date : UTC 2015-09-24 22:59:07
Writing application : mkvmerge v8.3.0 ('Over the Horizon') 64bit
Writing library : libebml v1.3.1 + libmatroska v1.4.2
DURATION : 01:53:11.542000000
NUMBER_OF_FRAMES : 1267
NUMBER_OF_BYTES : 50943
_STATISTICS_WRITING_APP : mkvmerge v8.3.0 ('Over the Horizon') 64bit
_STATISTICS_WRITING_DATE_UTC : 2015-09-24 22:59:07
_STATISTICS_TAGS : BPS DURATION NUMBER_OF_FRAMES NUMBER_OF_BYTES
Video
ID : 1
Format : AVC
Format/Info : Advanced Video Codec
Format profile : High@L4.1
Format settings, CABAC : Yes
Format settings, ReFrames : 12 frames
Codec ID : V_MPEG4/ISO/AVC
Duration : 1h 54mn
Bit rate : 7 957 Kbps
Width : 1 280 pixels
Height : 532 pixels
Display aspect ratio : 2.40:1
Frame rate mode : Constant
Frame rate : 23.976 fps
Color space : YUV
Chroma subsampling : 4:2:0
Bit depth : 8 bits
Scan type : Progressive
Bits/(Pixel*Frame) : 0.487
Stream size : 6.36 GiB (77%)
Title : San Andreas (2015) - Release for HDCLUB
Writing library : x264 core 142 r2431+42 c69a006 tMod [8-bit@all X86_64]
Encoding settings : cabac=1 / ref=12 / deblock=1:-3:-3 / analyse=0x3:0x133 / me=umh / subme=11 / psy=1 / fade_compensate=0.00 / psy_rd=1.00:0.00 / mixed_ref=1 / me_range=48 / chroma_me=1 / trellis=2 / 8x8dct=1 / cqm=0 / deadzone=21,11 / fast_pskip=0 / chroma_qp_offset=-2 / threads=24 / lookahead_threads=4 / sliced_threads=0 / nr=0 / decimate=1 / interlaced=0 / bluray_compat=0 / constrained_intra=0 / fgo=0 / bframes=8 / b_pyramid=2 / b_adapt=2 / b_bias=0 / direct=1 / weightb=1 / open_gop=0 / weightp=2 / keyint=240 / keyint_min=23 / scenecut=40 / intra_refresh=0 / rc_lookahead=60 / rc=crf / mbtree=0 / crf=15.9000 / qcomp=0.60 / qpmin=0:0:0 / qpmax=69:69:69 / qpstep=4 / vbv_maxrate=50000 / vbv_bufsize=62500 / crf_max=0.0 / nal_hrd=none / filler=0 / ip_ratio=1.35 / pb_ratio=1.25 / aq=4:0.80 / aq-sensitivity=10.00 / aq-factor=1.00:1.00:1.00 / aq2=0 / aq3=0
Language : English
Default : Yes
Forced : No
DURATION : 01:54:28.612000000
NUMBER_OF_FRAMES : 164682
NUMBER_OF_BYTES : 7004919685
_STATISTICS_WRITING_APP : mkvmerge v8.3.0 ('Over the Horizon') 64bit
_STATISTICS_WRITING_DATE_UTC : 2015-09-24 22:59:07
_STATISTICS_TAGS : BPS DURATION NUMBER_OF_FRAMES NUMBER_OF_BYTES
Audio #1
ID : 2
Format : AC-3
Format/Info : Audio Coding 3
Mode extension : CM (complete main)
Format settings, Endianness : Big
Codec ID : A_AC3
Duration : 1h 54mn
Bit rate mode : Constant
Bit rate : 448 Kbps
Channel count : 6 channels
Channel positions : Front: L C R, Side: L R, LFE
Sampling rate : 48.0 KHz
Bit depth : 16 bits
Compression mode : Lossy
Stream size : 367 MiB (4%)
Title : AC3 5.1 @ 448 kbps - DUB, Blu-ray CEE
Language : Russian
Default : Yes
Forced : No
Audio #2
ID : 3
Format : DTS
Format/Info : Digital Theater Systems
Mode : 16
Format settings, Endianness : Big
Codec ID : A_DTS
Duration : 1h 54mn
Bit rate mode : Constant
Bit rate : 1 509 Kbps
Channel count : 6 channels
Channel positions : Front: L C R, Side: L R, LFE
Sampling rate : 48.0 KHz
Bit depth : 24 bits
Compression mode : Lossy
Stream size : 1.21 GiB (15%)
Title : DTS 5.1 @ 1536 kbps
Language : English
Default : No
Forced : No
Audio #3
ID : 4
Format : AC-3
Format/Info : Audio Coding 3
Format profile : Dolby Digital
Mode extension : CM (complete main)
Format settings, Endianness : Big
Codec ID : A_AC3
Duration : 1h 54mn
Bit rate mode : Constant
Bit rate : 192 Kbps
Channel count : 2 channels
Channel positions : Front: L R
Sampling rate : 48.0 KHz
Bit depth : 16 bits
Compression mode : Lossy
Stream size : 157 MiB (2%)
Title : AC3 2.0 @ 192 kbps - Commentary
Language : English
Default : No
Forced : No
Text #1
ID : 5
Format : UTF-8
Codec ID : S_TEXT/UTF8
Codec ID/Info : UTF-8 Plain Text
Title : Forced
Language : Russian
Default : Yes
Forced : Yes
Text #2
ID : 6
Format : UTF-8
Codec ID : S_TEXT/UTF8
Codec ID/Info : UTF-8 Plain Text
Language : Russian
Default : No
Forced : No
Text #3
ID : 7
Format : UTF-8
Codec ID : S_TEXT/UTF8
Codec ID/Info : UTF-8 Plain Text
Language : English
Default : No
Forced : No
Menu
00:00:00.000 : en:00:00:00.000
00:09:29.944 : en:00:09:29.944
00:18:47.209 : en:00:18:47.209
00:30:10.100 : en:00:30:10.100
00:40:08.823 : en:00:40:08.823
00:50:18.098 : en:00:50:18.098
00:59:44.498 : en:00:59:44.498
01:11:27.366 : en:01:11:27.366
01:19:43.612 : en:01:19:43.612
01:30:40.810 : en:01:30:40.810
01:39:56.490 : en:01:39:56.490
01:47:10.924 : en:01:47:10.924

Скриншоты


[Профиль] [ЛС]
Показать сообщения:    

Текущее время: Сегодня 14:03

Часовой пояс: GMT



Вы не можете начинать темы
Вы не можете отвечать на сообщения
Вы не можете редактировать свои сообщения
Вы не можете удалять свои сообщения
Вы не можете голосовать в опросах
Вы не можете прикреплять файлы к сообщениям
Вы не можете скачивать файлы