Разиня / Le corniaud (1965) BDRip 1080р | D, P

 
Автор Сообщение

Russian Mafia ®

Пол:

Стаж: 1 год 8 месяцев

Сообщений: 4257



Награды: 10 (Подробнее)

Mega Seeder 3 (Количество: 1) Top Releaser 5 (Количество: 1) Top Releaser 4 (Количество: 1)
Торрент-статистика

Создавать темы 07-Авг-2016 08:45

[Цитировать]

Информация о фильме
Название: Разиня
Оригинальное название: Le corniaud
Год выхода: 1965
Жанр: комедия, криминал, ...
Режиссер: Жерар Ури
В ролях: Бурвиль, Луи де Фюнес, Венантино Венантини, Анри Жене, Ландо Будзанка, Жак Эйзер, Анри Вирложё, Жан Мейер, Джек Ари, Жан-Мари Бон, ...
О фильме: Антуан Марешаль, в качестве компенсации за разбитую машину, получает от богатого промышленика Леопольда Сарояна роскошный кабриолет, оборудованный телефоном и стереосистемой. Вне себя от счастья, он продолжает свое путешествие в Италию.
Однако бесплатный сыр бывает только в мышеловке. Марешаль не подозревает, что его используют гангстеры во главе с Сарояном. Дареный автомобиль напичкан золотом и наркотиками, а на хвосте у Марешаля теперь сидят две соперничающие банды контрабандистов…

Страна: Франция, Италия
Студия: Les Films Corona, Explorer Film '58
Продолжительность: 01:50:29
Перевод:
Профессиональный (дублированный) «Союзмультфильм» 1968 год
Профессиональный (многоголосый, закадровый)
Субтитры
Файл
Кодек: x264
Качество: BDRip 1080p
Видео: 1920x816, 11000 kbps, 24 fps
Звук:
Аудио #1: AC-3, 2 ch, 192 kbps (Rus) - Dub СССР «Союзмультфильм»
Аудио #2: AC-3, 2 ch, 192 kbps (Rus) - MVO
Аудио #4: DTS, 2 ch, 1509 kbps (Fre)
Субтитры: Русские, Английские

Дополнительная информация

За исходник спасибо - acdcfun
Работу Владимира Кенигсона (голос Луи де Фюнеса) и Ростислава Плятта (голос Бурвиля) относят к лучшим образцам советской школы озвучивания иностранного кино.

MI

x264 [info]: frame I:943 Avg QP:20.25 size:197882
x264 [info]: frame P:31417 Avg QP:22.92 size:103603
x264 [info]: frame B:126757 Avg QP:24.91 size: 44758
x264 [info]: consecutive B-frames: 0.9% 0.8% 4.0% 19.2% 17.8% 51.0% 5.4% 0.4% 0.4% 0.1% 0.1%
Общее
Уникальный идентификатор : 232879653941493367266283230490767968136 (0xAF32FD69DA7D96DA9EE6D3D2A210C788)
Полное имя : Разиня (Le corniaud) 1965 BDRip 1080р.mkv
Формат : Matroska
Версия формата : Version 2
Размер файла : 9,95 Гбайт
Продолжительность : 1 ч. 50 м.
Общий поток : 12,9 Мбит/сек
Дата кодирования : UTC 2015-12-23 19:10:48
Программа кодирования : mkvmerge v4.0.0 ('The Stars were mine') сборка от Jun 6 2010 16:18:42
Библиотека кодирования : libebml v1.0.0 + libmatroska v1.0.0
Видео
Идентификатор : 1
Формат : AVC
Формат/Информация : Advanced Video Codec
Профиль формата : High@L4.1
Параметр CABAC формата : Да
Параметр ReFrames формата : 5 кадров
Идентификатор кодека : V_MPEG4/ISO/AVC
Продолжительность : 1 ч. 50 м.
Битрейт : 11,0 Мбит/сек
Ширина : 1920 пикселей
Высота : 816 пикселей
Соотношение сторон : 2,35:1
Режим частоты кадров : Постоянный
Частота кадров : 24,000 кадра/сек
Цветовое пространство : YUV
Субдискретизация насыщенности : 4:2:0
Битовая глубина : 8 бит
Тип развёртки : Прогрессивная
Бит/(Пиксели*Кадры) : 0.293
Размер потока : 8,29 Гбайт (83%)
Библиотека кодирования : x264 core 146 r2538 121396c
Настройки программы : cabac=1 / ref=5 / deblock=1:-3:-3 / analyse=0x3:0x133 / me=umh / subme=11 / psy=1 / psy_rd=1.00:0.00 / mixed_ref=1 / me_range=32 / chroma_me=1 / trellis=2 / 8x8dct=1 / cqm=0 / deadzone=21,11 / fast_pskip=1 / chroma_qp_offset=-4 / threads=12 / lookahead_threads=2 / sliced_threads=0 / nr=0 / decimate=0 / interlaced=0 / bluray_compat=0 / constrained_intra=0 / bframes=10 / b_pyramid=2 / b_adapt=2 / b_bias=0 / direct=3 / weightb=1 / open_gop=0 / weightp=2 / keyint=240 / keyint_min=24 / scenecut=40 / intra_refresh=0 / rc_lookahead=60 / rc=2pass / mbtree=0 / bitrate=11000 / ratetol=1.0 / qcomp=0.60 / qpmin=0 / qpmax=69 / qpstep=4 / cplxblur=20.0 / qblur=0.5 / vbv_maxrate=50000 / vbv_bufsize=62500 / nal_hrd=none / filler=0 / ip_ratio=1.40 / pb_ratio=1.30 / aq=1:0.80
Язык : French
Default : Нет
Forced : Нет
Аудио #1
Идентификатор : 2
Формат : AC-3
Формат/Информация : Audio Coding 3
Расширение режима : CM (complete main)
Параметр Endianness формата : Big
Идентификатор кодека : A_AC3
Продолжительность : 1 ч. 50 м.
Вид битрейта : Постоянный
Битрейт : 192 Кбит/сек
Каналы : 2 канала
Расположение каналов : Front: L R
Частота : 48,0 КГц
Метод сжатия : С потерями
Размер потока : 152 Мбайт (1%)
Заголовок : Dub СССР «Союзмультфильм»
Язык : Russian
Default : Нет
Forced : Нет
Аудио #2
Идентификатор : 3
Формат : AC-3
Формат/Информация : Audio Coding 3
Расширение режима : CM (complete main)
Параметр Endianness формата : Big
Идентификатор кодека : A_AC3
Продолжительность : 1 ч. 50 м.
Вид битрейта : Постоянный
Битрейт : 192 Кбит/сек
Каналы : 2 канала
Расположение каналов : Front: L R
Частота : 48,0 КГц
Метод сжатия : С потерями
Размер потока : 152 Мбайт (1%)
Заголовок : MVO
Язык : Russian
Default : Нет
Forced : Нет
Аудио #3
Идентификатор : 4
Формат : DTS
Формат/Информация : Digital Theater Systems
Режим : 16
Параметр Endianness формата : Big
Идентификатор кодека : A_DTS
Продолжительность : 1 ч. 50 м.
Вид битрейта : Постоянный
Битрейт : 1509 Кбит/сек
Каналы : 2 канала
Расположение каналов : Front: L R
Частота : 48,0 КГц
Битовая глубина : 24 бит
Метод сжатия : С потерями
Размер потока : 1,16 Гбайт (12%)
Язык : French
Default : Нет
Forced : Нет
Текст #1
Идентификатор : 5
Формат : UTF-8
Идентификатор кодека : S_TEXT/UTF8
Идентификатор кодека/Информация : UTF-8 Plain Text
Язык : Russian
Default : Нет
Forced : Нет
Текст #2
Идентификатор : 6
Формат : UTF-8
Идентификатор кодека : S_TEXT/UTF8
Идентификатор кодека/Информация : UTF-8 Plain Text
Язык : English
Default : Нет
Forced : Нет

[Профиль] [ЛС]
Кто просматривает тему:

Форум Тема Автор Размер
Классика зарубежного кино Разиня / The Sucker / Le corniaud (1965) BDRip от HQCLUB Russian Mafia 1.45 GB
Показать сообщения:    

Текущее время: Сегодня 21:35

Часовой пояс: GMT



Вы не можете начинать темы
Вы не можете отвечать на сообщения
Вы не можете редактировать свои сообщения
Вы не можете удалять свои сообщения
Вы не можете голосовать в опросах
Вы не можете прикреплять файлы к сообщениям
Вы не можете скачивать файлы