Раздавленная вишня / В ловушке красоты / Cherry Crush (Николас ДиБелла / Nicholas DiBella) [2007, США, триллер, драма, DVDRip] AVO (Дольский) + Original Eng

 
Автор Сообщение

TorrentFilm ®

Пол:

Стаж: 2 года

Сообщений: 7741



Награды: Нет

Торрент-статистика

Создавать темы 29-Сен-2015 00:08

[Цитировать]

Раздавленная вишня / В ловушке красоты / Cherry Crush- Страна: США
Жанр: триллер, драма
Год выпуска: 2007
Продолжительность: 01:29:03-Перевод: Авторский (одноголосый закадровый) Андрей Дольский
Cубтитры: нет
Оригинальная аудиодорожка: английский (отдельно)-Режиссер: Николас ДиБелла / Nicholas DiBella
В ролях: Никки Рид, Джонатан Такер, Джули Гонсало, Майкл О`Кифи, Хэвиланд Моррис, Деннис Боутсикарис, Фрэнк Уэли, Алесса Неецк, Кристофер Джон Мартин, Патриция Льюис Браун-Описание: Джордан Велс, талантливый семнадцатилетний фотограф, смирился с планами на будущее, которые придумал его отец и стал помешанным фотографом. После того, как его выгнали из школы за фотографирование обнажённых девушек, он пошёл в другую школу, где влюбился в красивую девушку - Шэй. Но вскоре он понял, что его вовлекли в криминал и он стал соучастником убийства...-Сэмпл-Качество видео: DVDRip / Cherry.Crush[2007]DvDrip[Eng]-by-Dadush.avi. /
Формат видео: AVI
Видео: 616x336 (1.83:1), 23.976 fps, XviD Final 1.0.3 (build 37) ~897 kbps avg, 0.18 bit/pixel
Аудио: 48 kHz, AC3 Dolby Digital, 2/0 (L,R) ch, ~192 kbps
Аудио 2: 48 kHz, AC3 Dolby Digital, 2/0 (L,R) ch, ~192 kbps (отдельно)

MediaInfo

General
Complete name : E:\Downloads\Cherry Crush.avi
Format : AVI
Format/Info : Audio Video Interleave
File size : 700 MiB
Duration : 1h 29mn
Overall bit rate : 1 099 Kbps
Writing application : VirtualDubMod 1.5.10.2 (build 2540/release)
Writing library : VirtualDubMod build 2540/release
Video
ID : 0
Format : MPEG-4 Visual
Format profile : Advanced Simple@L5
Format settings, BVOP : 2
Format settings, QPel : No
Format settings, GMC : No warppoints
Format settings, Matrix : Default (H.263)
Codec ID : DX50
Codec ID/Hint : DivX 5
Duration : 1h 29mn
Bit rate : 897 Kbps
Width : 616 pixels
Height : 336 pixels
Display aspect ratio : 1.85:1
Frame rate : 23.976 fps
Color space : YUV
Chroma subsampling : 4:2:0
Bit depth : 8 bits
Scan type : Progressive
Compression mode : Lossy
Bits/(Pixel*Frame) : 0.181
Stream size : 571 MiB (82%)
Writing library : XviD 1.0.3 (UTC 2004-12-20)
Audio
ID : 1
Format : AC-3
Format/Info : Audio Coding 3
Mode extension : CM (complete main)
Format settings, Endianness : Big
Codec ID : 2000
Duration : 1h 29mn
Bit rate mode : Constant
Bit rate : 192 Kbps
Channel(s) : 2 channels
Channel positions : Front: L R
Sampling rate : 48.0 KHz
Bit depth : 16 bits
Compression mode : Lossy
Stream size : 122 MiB (17%)
Alignment : Split accross interleaves
Interleave, duration : 42 ms (1.00 video frame)
Interleave, preload duration : 500 ms

Скриншот c названием фильма

Скриншоты

[Профиль] [ЛС]
Показать сообщения:    

Текущее время: Сегодня 17:42

Часовой пояс: GMT



Вы не можете начинать темы
Вы не можете отвечать на сообщения
Вы не можете редактировать свои сообщения
Вы не можете удалять свои сообщения
Вы не можете голосовать в опросах
Вы не можете прикреплять файлы к сообщениям
Вы не можете скачивать файлы