Развод / Le Divorce (2003) HDTV 1080i от Deadmauvlad | D

 
Автор Сообщение

sergej644 ®

Пол:

Стаж: 4 года 11 месяцев

Сообщений: 6045

Откуда: Soviet Union



Награды: Нет

Торрент-статистика

Создавать темы 23-Ноя-2014 12:21

[Цитировать]

--Развод / Le Divorce (2003)
Информация о фильме
Название: Развод
Оригинальное название: Le divorce
Год выхода: 2003
Жанр: драма, мелодрама, комедия
Режиссер: Джеймс Айвори
В ролях: Кейт Хадсон, Наоми Уоттс, Тьерри Лермитт, Мельвиль Пупо, Гленн Клоуз, Ромен Дюри, Лесли Карон, Стоккард Чэннинг, Сэм Уотерстон, Жан-Марк Барр
О фильме:
Брак поэтессы Рокси Уолкет и художника Шарля-Анри де Персана трещит по швам, и дело начинает пахнуть разводом. На помощь беременной и оскорбленной Рокси прилетает из Америки ее сестра Изабель. Легкомысленная и романтичная иностранка не имеет ни малейшего представления о традициях и нормах поведения во Франции. Вместо того, чтобы способствовать затуханию семейного скандала, Изабель начинает крутить роман с женатым дипломатом, который к тому же приходится мужу Рокси дядей…

Страна: США
Студия: Millennium Films , Radar Pictures Inc.
Продолжительность: 01:51:21
Перевод: Профессиональный (полное дублирование) Невафильм
Файл
Формат MKV
Кодек: AVC
Качество: HDTV 1080i
Видео: 1920x1080 (16:9), 25 fps, 5 838 Kbps (0.056 bit/pixel)
Звук:
Аудио #1: MP2, 48.0 KHz, 2 ch, 192 Kbps, (Русский)
Аудио #2: AC-3, 48.0 KHz, 2 ch, 192 Kbps, CBR (Русский)
Субтитры: отсутствуют

MI

Razvod.2003.D.HDTV.1080i.By.Deadmauvlad.mkv
Формат : Matroska
Версия формата : Version 4 / Version 2
Размер файла : 4,94 Гбайт
Продолжительность : 1 ч. 51 м.
Режим общего битрейта : Переменный
Общий поток : 6348 Кбит/сек
Дата кодирования : UTC 2014-11-10 09:00:52
Программа кодирования : mkvmerge v6.1.0 ('Old Devil') built on Mar 4 2013 09:10:42
Библиотека кодирования : libebml v1.3.0 + libmatroska v1.4.0
Видео
Идентификатор : 1
Формат : AVC
Формат/Информация : Advanced Video Codec
Профиль формата : High@L4.0
Параметр CABAC формата : Да
Параметр ReFrames формата : 3 кадра
Параметр GOP формата : M=4, N=36
Идентификатор кодека : V_MPEG4/ISO/AVC
Продолжительность : 1 ч. 51 м.
Вид битрейта : Переменный
Битрейт : 5838 Кбит/сек
Максимальный битрейт : 40,0 Мбит/сек
Ширина : 1920 пикселей
Высота : 1080 пикселей
Соотношение сторон : 16:9
Режим частоты кадров : Постоянный
Частота кадров : 25,000 кадров/сек
Стандарт вещания : Component
Цветовое пространство : YUV
Субдискретизация насыщенности : 4:2:0
Битовая глубина : 8 бит
Тип развёртки : Чересстрочная
Порядок развёртки : Верхнее поле первое
Бит/(Пиксели*Кадры) : 0.113
Размер потока : 4,54 Гбайт (92%)
Заголовок : Развод.HDTV.1080.By.Deadmauvlad.R.G_Goldenshara
Язык : Russian
Default : Да
Forced : Да
Основные цвета : BT.709
Характеристики трансфера : BT.709
Коэффициенты матрицы : BT.709
Аудио #1
Идентификатор : 2
Формат : MPEG Audio
Версия формата : Version 1
Профиль формата : Layer 2
Идентификатор кодека : A_MPEG/L2
Идентификатор кодека/Подсказка : MP2
Продолжительность : 1 ч. 51 м.
Вид битрейта : Постоянный
Битрейт : 192 Кбит/сек
Каналы : 2 канала
Частота : 48,0 КГц
Метод сжатия : С потерями
Задержка видео : 28 мс.
Размер потока : 153 Мбайт (3%)
Заголовок : MP2 DD.2.0 Дубляж
Язык : Russian
Default : Да
Forced : Да
Аудио #2
Идентификатор : 3
Формат : AC-3
Формат/Информация : Audio Coding 3
Расширение режима : CM (complete main)
Параметр Endianness формата : Big
Идентификатор кодека : A_AC3
Продолжительность : 1 ч. 51 м.
Вид битрейта : Постоянный
Битрейт : 192 Кбит/сек
Каналы : 2 канала
Расположение каналов : Front: L R
Частота : 48,0 КГц
Битовая глубина : 16 бит
Метод сжатия : С потерями
Задержка видео : -120 мс.
Размер потока : 153 Мбайт (3%)
Заголовок : AC-3 DD.2.0 Дубляж
Язык : Russian
Default : Нет
Forced : Нет
Релиз от: Deadmauvlad
[Профиль] [ЛС]
Кто просматривает тему:

Форум Тема Автор Размер
Фильмы 2014 года Голубки разводятся / Le tourtereaux divorcent (Винченцо Марано / Vincenzo Marano) [2014, Франция, комедийная мелодрама, DVB] Original (Fre) + Sub (rus) TorrentFilm 2.01 GB
Фильмы (HD Rips | 720p, 1080p) Приглашение на развод / Divorce Invitation (2012) BDRemux 1080i от NovaLan sergej644 17.8 GB
Фильмы (HD Rips | 720p, 1080p) Развод по собственному желанию (2015) WEB-DL 1080p Russian Mafia 3.28 GB
Фильмы 2015 года Развод по собственному желанию (2015) WEB-DLRip Russian Mafia 1.37 GB
Фильмы 2011 года Развод по-американски / The Break-Up (Пейтон Рид / Peyton Reed) [2006 г., комедия, мелодрама, драма, BDRip-AVC] Dub + Original + Subs painkiller 1.46 GB
Фильмы 2011 года Развод по-американски / The Break-Up (Пейтон Рид / Peyton Reed) [2006 г., комедия, мелодрама, драма, BDRip-AVC] Dub + Subs painkiller 745 MB
Фильмы 2011 года Развод по-американски / The Break-Up (Пейтон Рид / Peyton Reed) [2006, США, комедия, мелодрама, BDRip] AVO (Евгений Гранкин) TorrentFilm 749 MB
Фильмы 2014 года Развод по-французски / L'ex de ma vie (Дороте Себба) [2014, комедия, мелодрама] WEB-DLRip | iTunes BOSS 1.37 GB
Показать сообщения:    

Текущее время: Сегодня 09:56

Часовой пояс: GMT



Вы не можете начинать темы
Вы не можете отвечать на сообщения
Вы не можете редактировать свои сообщения
Вы не можете удалять свои сообщения
Вы не можете голосовать в опросах
Вы не можете прикреплять файлы к сообщениям
Вы не можете скачивать файлы