Развод по собственному желанию (2015) WEB-DLRip

 
Автор Сообщение

достали все ®

Пол:

Стаж: 1 год 8 месяцев

Сообщений: 6613



Награды: 12 (Подробнее)

Top Releaser 4 (Количество: 1) Mega Seeder 2 (Количество: 1) Mega Seeder 1 (Количество: 1)
Торрент-статистика

Создавать темы 08-Окт-2015 15:43

[Цитировать]

Страна: Россия
Жанр: комедия, мелодрама
Год выпуска: 2015
Продолжительность: 01:25:17
Перевод: Не требуется
Режиссер: Илья Северов
В ролях: Константин Юшкевич, Наталья Суркова, Вячеслав Коробицин, Юрий Гальцев, Наталья Ткаченко, Любовь Виролайнен, Антон Пулит, Артем Веселов, Екатерина Зорина, Артем Анчуков
Описание: Тренер, велогонщик в прошлом, Сергей и основательница сети книжных магазинов Елена уже двадцать лет вместе. Из неожиданно разгоревшейся супружеской ссоры возникает серьезный скандал, грозящий перерасти в развод.
Сиюминутное решение Сергея - начать все заново. Он уходит из дома и не подозревает, что жизнь может кардинально поменяться всего за несколько часов. Круговерть невероятных приключений, в которые втягивает лучший друг, и безумных ситуаций с близкими проверят на прочность крепость семейных уз Сергея и Елены.

Качество: WEB-DLRip
Контейнер: AVI
Видео: XviD, 704x368 (1.913), 1018 kbps, 25 fps, 0,157 bpp
Аудио: AC3 / 2.0 / 48 kHz / 192 kbps / 16 bit

Скриншоты

Острожно - спойлер!

General
Complete name : C:UsersАванес МКРТЧЯНDesktopRazvod_2015_WEBDLRip.avi
Format : AVI
Format/Info : Audio Video Interleave
File size : 745 MiB
Duration : 1h 25mn
Overall bit rate : 1 221 Kbps
Writing application : VirtualDubMod 1.5.10.3 | www.virtualdub-fr.org || (build 2550/release)
Writing library : VirtualDubMod build 2550/release
Video
ID : 0
Format : MPEG-4 Visual
Format profile : Advanced Simple@L5
Format settings, BVOP : 1
Format settings, QPel : No
Format settings, GMC : No warppoints
Format settings, Matrix : Default (H.263)
Codec ID : XVID
Codec ID/Hint : XviD
Duration : 1h 25mn
Bit rate : 1 019 Kbps
Width : 704 pixels
Height : 368 pixels
Display aspect ratio : 1.913
Frame rate : 25.000 fps
Color space : YUV
Chroma subsampling : 4:2:0
Bit depth : 8 bits
Scan type : Progressive
Compression mode : Lossy
Bits/(Pixel*Frame) : 0.157
Stream size : 622 MiB (83%)
Writing library : XviD 73
Audio
ID : 1
Format : AC-3
Format/Info : Audio Coding 3
Mode extension : CM (complete main)
Codec ID : 2000
Duration : 1h 25mn
Bit rate mode : Constant
Bit rate : 192 Kbps
Channel(s) : 2 channels
Channel positions : Front: L R
Sampling rate : 48.0 KHz
Bit depth : 16 bits
Compression mode : Lossy
Stream size : 117 MiB (16%)
Alignment : Split accross interleaves
Interleave, duration : 40 ms (1.00 video frame)
Interleave, preload duration : 500 ms
[Профиль] [ЛС]
Кто просматривает тему:

Форум Тема Автор Размер
Фильмы 2014 года Голубки разводятся / Le tourtereaux divorcent (Винченцо Марано / Vincenzo Marano) [2014, Франция, комедийная мелодрама, DVB] Original (Fre) + Sub (rus) TorrentFilm 2.01 GB
Фильмы (HD Rips | 720p, 1080p) Приглашение на развод / Divorce Invitation (2012) BDRemux 1080i от NovaLan sergej644 17.8 GB
Фильмы (HD Rips | 720p, 1080p) Развод / Le Divorce (2003) HDTV 1080i от Deadmauvlad | D sergej644 4.94 GB
Фильмы (HD Rips | 720p, 1080p) Развод по собственному желанию (2015) WEB-DL 1080p Russian Mafia 3.28 GB
Фильмы 2015 года Развод по собственному желанию (2015) WEB-DLRip Russian Mafia 1.37 GB
Фильмы 2011 года Развод по-американски / The Break-Up (Пейтон Рид / Peyton Reed) [2006 г., комедия, мелодрама, драма, BDRip-AVC] Dub + Original + Subs painkiller 1.46 GB
Фильмы 2011 года Развод по-американски / The Break-Up (Пейтон Рид / Peyton Reed) [2006 г., комедия, мелодрама, драма, BDRip-AVC] Dub + Subs painkiller 745 MB
Фильмы 2011 года Развод по-американски / The Break-Up (Пейтон Рид / Peyton Reed) [2006, США, комедия, мелодрама, BDRip] AVO (Евгений Гранкин) TorrentFilm 749 MB
Показать сообщения:    

Текущее время: Сегодня 20:45

Часовой пояс: GMT



Вы не можете начинать темы
Вы не можете отвечать на сообщения
Вы не можете редактировать свои сообщения
Вы не можете удалять свои сообщения
Вы не можете голосовать в опросах
Вы не можете прикреплять файлы к сообщениям
Вы не можете скачивать файлы