Развод по-американски / The Break-Up (Пейтон Рид / Peyton Reed) [2006, США, комедия, мелодрама, BDRip] AVO (Евгений Гранкин)

 
Автор Сообщение

TorrentFilm ®

Пол:

Стаж: 2 года

Сообщений: 7741



Награды: Нет

Торрент-статистика

Создавать темы 29-Янв-2016 00:08

[Цитировать]

Развод по-американски / The Break-Up- Страна: США
Жанр: комедия, мелодрама
Год выпуска: 2006
Продолжительность: 01:46:30-Перевод: Авторский (одноголосый закадровый) Евгений Гранкин
Cубтитры: нет-Режиссер: Пейтон Рид / Peyton Reed
В ролях: Винс Вон, Дженнифер Энистон, Джои Лорен Эдамс, Коул Хаузер, Джон Фавро, Джейсон Бейтман, Джуди Дэвис, Джастин Лонг, Иван Сергей, Джон Майкл Хиггинс, Энн-Маргрет-Описание: Когда Брук и Гэри решили разойтись, все казалось простым и понятным. Не сошлись характерами. Такое бывает. И даже сплошь и рядом. Однако ни тот, ни другой не захотел торопиться и покидать насиженное местечко первым. Пауза затянулась.
С обеих сторон подтянулись друзья и доверенные лица. Началась война. В бывшем семействе. Или не в бывшем? Может быть, развод - это просто способ сказать «я тебя люблю»?-Сэмпл-Качество видео: BDRip
Формат видео: AVI
Видео: 688x368 (1.87:1), 23.976 fps, XviD build 55 ~845 kbps avg, 0.14 bit/pixel
Аудио: 48 kHz, MPEG Layer 3, 2 ch, ~128.00 kbps avg

MediaInfo

General
Complete name : E:\Downloads\BreakUp.Grankin.avi
Format : AVI
Format/Info : Audio Video Interleave
File size : 749 MiB
Duration : 1h 46mn
Overall bit rate : 983 Kbps
Writing application : VirtualDubMod 1.5.10.2 (build 2540/release)
Writing library : VirtualDubMod build 2540/release
Video
ID : 0
Format : MPEG-4 Visual
Format profile : Advanced Simple@L5
Format settings, BVOP : 1
Format settings, QPel : No
Format settings, GMC : No warppoints
Format settings, Matrix : Custom
Codec ID : XVID
Codec ID/Hint : XviD
Duration : 1h 46mn
Bit rate : 846 Kbps
Width : 688 pixels
Height : 368 pixels
Display aspect ratio : 1.85:1
Frame rate : 23.976 fps
Color space : YUV
Chroma subsampling : 4:2:0
Bit depth : 8 bits
Scan type : Progressive
Compression mode : Lossy
Bits/(Pixel*Frame) : 0.139
Stream size : 644 MiB (86%)
Writing library : XviD 1.3.0.dev55
Audio
ID : 1
Format : MPEG Audio
Format version : Version 1
Format profile : Layer 3
Mode : Joint stereo
Mode extension : MS Stereo
Codec ID : 55
Codec ID/Hint : MP3
Duration : 1h 46mn
Bit rate mode : Constant
Bit rate : 128 Kbps
Channel(s) : 2 channels
Sampling rate : 48.0 KHz
Compression mode : Lossy
Stream size : 97.5 MiB (13%)
Alignment : Aligned on interleaves
Interleave, duration : 42 ms (1.00 video frame)
Interleave, preload duration : 504 ms
Writing library : LAME3.99.5

Скриншот c названием фильма

Скриншоты

[Профиль] [ЛС]
Кто просматривает тему:

Форум Тема Автор Размер
Фильмы 2014 года Голубки разводятся / Le tourtereaux divorcent (Винченцо Марано / Vincenzo Marano) [2014, Франция, комедийная мелодрама, DVB] Original (Fre) + Sub (rus) TorrentFilm 2.01 GB
Фильмы (HD Rips | 720p, 1080p) Приглашение на развод / Divorce Invitation (2012) BDRemux 1080i от NovaLan sergej644 17.8 GB
Фильмы (HD Rips | 720p, 1080p) Развод / Le Divorce (2003) HDTV 1080i от Deadmauvlad | D sergej644 4.94 GB
Фильмы (HD Rips | 720p, 1080p) Развод по собственному желанию (2015) WEB-DL 1080p Russian Mafia 3.28 GB
Фильмы 2015 года Развод по собственному желанию (2015) WEB-DLRip Russian Mafia 1.37 GB
Фильмы 2011 года Развод по-американски / The Break-Up (Пейтон Рид / Peyton Reed) [2006 г., комедия, мелодрама, драма, BDRip-AVC] Dub + Original + Subs painkiller 1.46 GB
Фильмы 2011 года Развод по-американски / The Break-Up (Пейтон Рид / Peyton Reed) [2006 г., комедия, мелодрама, драма, BDRip-AVC] Dub + Subs painkiller 745 MB
Фильмы 2014 года Развод по-французски / L'ex de ma vie (Дороте Себба) [2014, комедия, мелодрама] WEB-DLRip | iTunes BOSS 1.37 GB
Показать сообщения:    

Текущее время: Сегодня 04:15

Часовой пояс: GMT



Вы не можете начинать темы
Вы не можете отвечать на сообщения
Вы не можете редактировать свои сообщения
Вы не можете удалять свои сообщения
Вы не можете голосовать в опросах
Вы не можете прикреплять файлы к сообщениям
Вы не можете скачивать файлы