Разборка в Маниле / Showdown in Manila (Марк Дакаскос / Mark Dacascos) [2016, США, Россия, Боевик, WEB-DLRip] Dub (iTunes)

 
Автор Сообщение

TorrentFilm ®

Пол:

Стаж: 2 года

Сообщений: 7741



Награды: Нет

Торрент-статистика

Создавать темы 22-Мар-2016 00:09

[Цитировать]

Разборка в Маниле / Showdown in Manila- Год выпуска: 2016
Выпущено: США, Россия / Hollywood Storm
Жанр: боевик
Продолжительность: 01:25:57
Перевод: Профессиональный (полное дублирование)
Cубтитры: нет-Режиссер:
Марк Дакаскос / Mark Dacascos-В ролях:
Александр Невский, Каспер Ван Дин, Кэри-Хироюки Тагава, Марк Дакаскос, Маттиас Хьюз, Синтия Ротрок, Дон «Дракон» Уилсон, Оливье Грюнер, Дмитрий Дюжев, Тиа Каррере, Джейк Макапагал, Иса Кальсадо-Описание:
Частные детективы Ник и Чарли живут и работают в Маниле. Расследование убийства выводит их на след международного террориста по кличке «Призрак», лагерь которого находится в филиппинских джунглях. Не доверяя полиции, Ник и Чарли собирают небольшую команду смельчаков и отправляются в логово «Призрака», которое охраняет армия наемников-головорезов…-Релиз групп [url=viewtopic.php?t=1677970] [/url] | | IMDB | КиноПоиск | Сэмпл |-Качество: WEB-DLRip [WEB-DL | 1080p | HDCLUB]
Формат: AVI
Видео: 704x368 (1.91:1), 25 fps, XviD build 67 ~2023 kbps avg, 0.31 bit/pixel
Аудио: 48 kHz, AC3 Dolby Digital, 3/2 (L,C,R,l,r) + LFE ch, ~384.00 kbps avg - iTunes Russia
-

Скриншоты

-

MediaInfo

General
Complete name                            : D:\Razborkav_v_Manile_2016_WEB-DLRip_iT_by_Dalemake.avi
Format                                   : AVI
Format/Info                              : Audio Video Interleave
File size                                : 1.45 GiB
Duration                                 : 1h 25mn
Overall bit rate                         : 2 417 Kbps
Writing application                      : VirtualDubMod 1.5.10.3 | www.virtualdub-fr.org || (build 2550/release)
Writing library                          : VirtualDubMod build 2550/release
Video
ID                                       : 0
Format                                   : MPEG-4 Visual
Format profile                           : Advanced Simple@L5
Format settings, BVOP                    : 1
Format settings, QPel                    : No
Format settings, GMC                     : No warppoints
Format settings, Matrix                  : Custom
Codec ID                                 : XVID
Codec ID/Hint                            : XviD
Duration                                 : 1h 25mn
Bit rate                                 : 2 024 Kbps
Width                                    : 704 pixels
Height                                   : 368 pixels
Display aspect ratio                     : 1.913
Frame rate                               : 25.000 fps
Color space                              : YUV
Chroma subsampling                       : 4:2:0
Bit depth                                : 8 bits
Scan type                                : Progressive
Compression mode                         : Lossy
Bits/(Pixel*Frame)                       : 0.312
Stream size                              : 1.21 GiB (84%)
Writing library                          : XviD 67
Audio
ID                                       : 1
Format                                   : AC-3
Format/Info                              : Audio Coding 3
Mode extension                           : CM (complete main)
Format settings, Endianness              : Big
Codec ID                                 : 2000
Duration                                 : 1h 25mn
Bit rate mode                            : Constant
Bit rate                                 : 384 Kbps
Channel(s)                               : 6 channels
Channel positions                        : Front: L C R, Side: L R, LFE
Sampling rate                            : 48.0 KHz
Frame rate                               : 31.250 fps (1536 spf)
Compression mode                         : Lossy
Stream size                              : 236 MiB (16%)
Alignment                                : Split accross interleaves
Interleave, duration                     : 40 ms (1.00 video frame)
Interleave, preload duration             : 500 ms
-
[Профиль] [ЛС]
Кто просматривает тему:

Форум Тема Автор Размер
BBC BBC: Преступники Британии. Разбойники с большой дороги, пираты и мошенники / Britain's Outlaws. Highwaymen, Pirates and Rogues [серии 1-3 из 3] (Andy Hall, Matthew Thomas, Gerry Dawson) [201... skorpionN 5.42 GB
Зарубежные мультфильмы Аладдин и король разбойников / Aladdin and the King of Thieves (1996) BDRip 720p | D Russian Mafia 2.58 GB
Отечественные мультфильмы Алеша Попович и Тугарин Змей / Добрыня Никитич и Змей Горыныч / Илья Муромец и Соловей Разбойник / Три богатыря и Шамаханская царица / Иван Царевич и Серый Волк (К. Бронзит, И. Максимов, В. Торопчин,... reversefile 7.31 GB
Отечественные мультфильмы Алеша Попович и Тугарин Змей / Добрыня Никитич и Змей Горыныч / Илья Муромец и Соловей Разбойник / Три богатыря и Шамаханская царица / Иван Царевич и Серый Волк / Три богатыря на дальних берегах... reversefile 4.37 GB
Отечественные мультфильмы Из жизни разбойников / 2 серии (Софья Кравцова) [2002-2004 г., Мультфильм, DVDRip] TorrentFilm 571 MB
Отечественные мультфильмы Илья Муромец и Соловей Разбойник (Владимир Торопчин) [2007 г., мультфильм, комедия, приключения, BDRip] reversefile 1.46 GB
Фильмы (HD Rips | 720p, 1080p) Разборка в Маниле / Showdown in Manila (2016) BDRip 720p | Лицензия достали все 4.18 GB
Фильмы 2016 года Разборка в Маниле / Showdown in Manila (2016) BDRip | Лицензия достали все 1.37 GB
Показать сообщения:    

Текущее время: Сегодня 12:52

Часовой пояс: GMT



Вы не можете начинать темы
Вы не можете отвечать на сообщения
Вы не можете редактировать свои сообщения
Вы не можете удалять свои сообщения
Вы не можете голосовать в опросах
Вы не можете прикреплять файлы к сообщениям
Вы не можете скачивать файлы