Разборка в Маниле / Showdown in Manila (2016) WEB-DLRip от New-Team | iTunes

 
Автор Сообщение

достали все ®

Пол:

Стаж: 1 год 8 месяцев

Сообщений: 6613



Награды: 12 (Подробнее)

Top Releaser 4 (Количество: 1) Mega Seeder 4 (Количество: 1) Mega Releaser 1 (Количество: 1)
Торрент-статистика

Создавать темы 21-Мар-2016 09:29

[Цитировать]

Страна: США, Россия
Жанр: боевик
Год выпуска: 2016
Продолжительность: 01:25:57-Перевод: Профессиональный (полное дублирование)
Режиссер: Марк Дакаскос / Mark Dacascos
В ролях: Александр Невский, Каспер Ван Дин, Кэри-Хироюки Тагава, Марк Дакаскос, Маттиас Хьюз, Синтия Ротрок, Дон «Дракон» Уилсон, Оливье Грюнер, Джейк Макапагал, Иса Кальсадо-Описание: Частные детективы Ник и Чарли живут и работают в Маниле. Расследование убийства выводит их на след международного террориста по кличке «Призрак», лагерь которого находится в филиппинских джунглях. Не доверяя полиции, Ник и Чарли собирают небольшую команду смельчаков и отправляются в логово «Призрака», которое охраняет армия наемников-головорезов...--Качество: WEB-DLRip | WEBDL 720p
Контейнер: AVI
Видео: XviD, 704x368 (1.913), 2034 kbps, 25 fps, 0,314 bpp
Аудио: AC3 / 5.1 / 48 kHz / 384 kbps / 16 bit-Раздача от: -

Скриншоты

Media Info

General
Complete name : D:filmShowdown.in.Manila.2016.WEBDLRip.by.New.avi
Format : AVI
Format/Info : Audio Video Interleave
File size : 1.46 GiB
Duration : 1h 25mn
Overall bit rate : 2 428 Kbps
Writing application : VirtualDubMod 1.5.10.3 | www.virtualdub-fr.org || (build 2550/release)
Writing library : VirtualDubMod build 2550/release
Video
ID : 0
Format : MPEG-4 Visual
Format profile : Advanced Simple@L5
Format settings, BVOP : 1
Format settings, QPel : No
Format settings, GMC : No warppoints
Format settings, Matrix : Custom
Codec ID : XVID
Codec ID/Hint : XviD
Duration : 1h 25mn
Bit rate : 2 034 Kbps
Width : 704 pixels
Height : 368 pixels
Display aspect ratio : 1.913
Frame rate : 25.000 fps
Color space : YUV
Chroma subsampling : 4:2:0
Bit depth : 8 bits
Scan type : Progressive
Compression mode : Lossy
Bits/(Pixel*Frame) : 0.314
Stream size : 1.22 GiB (84%)
Writing library : XviD 73
Audio
ID : 1
Format : AC-3
Format/Info : Audio Coding 3
Mode extension : CM (complete main)
Format settings, Endianness : Big
Codec ID : 2000
Duration : 1h 25mn
Bit rate mode : Constant
Bit rate : 384 Kbps
Channel(s) : 6 channels
Channel positions : Front: L C R, Side: L R, LFE
Sampling rate : 48.0 KHz
Compression mode : Lossy
Stream size : 236 MiB (16%)
Alignment : Split accross interleaves
Interleave, duration : 40 ms (1.00 video frame)
Interleave, preload duratio : 500 ms
[Профиль] [ЛС]
Кто просматривает тему:

Форум Тема Автор Размер
BBC BBC: Преступники Британии. Разбойники с большой дороги, пираты и мошенники / Britain's Outlaws. Highwaymen, Pirates and Rogues [серии 1-3 из 3] (Andy Hall, Matthew Thomas, Gerry Dawson) [201... skorpionN 5.42 GB
Зарубежные мультфильмы Аладдин и король разбойников / Aladdin and the King of Thieves (1996) BDRip 720p | D Russian Mafia 2.58 GB
Отечественные мультфильмы Алеша Попович и Тугарин Змей / Добрыня Никитич и Змей Горыныч / Илья Муромец и Соловей Разбойник / Три богатыря и Шамаханская царица / Иван Царевич и Серый Волк (К. Бронзит, И. Максимов, В. Торопчин,... reversefile 7.31 GB
Отечественные мультфильмы Алеша Попович и Тугарин Змей / Добрыня Никитич и Змей Горыныч / Илья Муромец и Соловей Разбойник / Три богатыря и Шамаханская царица / Иван Царевич и Серый Волк / Три богатыря на дальних берегах... reversefile 4.37 GB
Отечественные мультфильмы Из жизни разбойников / 2 серии (Софья Кравцова) [2002-2004 г., Мультфильм, DVDRip] TorrentFilm 571 MB
Отечественные мультфильмы Илья Муромец и Соловей Разбойник (Владимир Торопчин) [2007 г., мультфильм, комедия, приключения, BDRip] reversefile 1.46 GB
Фильмы (HD Rips | 720p, 1080p) Разборка в Маниле / Showdown in Manila (2016) BDRip 720p | Лицензия достали все 4.18 GB
Фильмы 2016 года Разборка в Маниле / Showdown in Manila (2016) BDRip | Лицензия достали все 1.37 GB
Показать сообщения:    

Текущее время: Сегодня 00:35

Часовой пояс: GMT



Вы не можете начинать темы
Вы не можете отвечать на сообщения
Вы не можете редактировать свои сообщения
Вы не можете удалять свои сообщения
Вы не можете голосовать в опросах
Вы не можете прикреплять файлы к сообщениям
Вы не можете скачивать файлы