Разбитые жизни / Shattered Lives (Карл Линдберг / Carl Lindbergh) [2009, США, драма, ужасы, DVDRip] VO (Хэм)

 
Автор Сообщение

painkiller ®

Стаж: 2 года 3 месяца

Сообщений: 582



Награды: Нет

Торрент-статистика

Создавать темы 16-Авг-2014 01:26

[Цитировать]

Разбитые жизни / Shattered Lives
Страна: США
Жанр: драма, ужасы
Год выпуска: 2009
Продолжительность: 1:24:21
Перевод: Одноголосый закадровый (Хэм)
Cубтитры: нет
Режиссер: Карл Линдберг / Carl Lindbergh
В ролях: Линдси Лейно, Кристина Розенберг, Люсия Салливан, Джеффри Жуковский
Описание: У 9-летней Рэйчел, которая живёт в стоящей на грани развода семье, появляется парочка воображаемых друзей. Новые приятели обещают помочь ей урегулировать ситуацию в семействе, но у них свой особый взгляд на то, как это сделать.
Доп. информация: IMDB / Кинопоиск / рип от Ragedevil
Качество видео: DVDRip
Формат видео: AVI
Видео: XVID, 640x256, 2,5:1, 29,970 fps, 1024 kbps
Аудио: MP3, 48 kHz, 128 kbps, 2.0

MediaInfo

General
Complete name : D:\Movs\Shattered.Lives.2009.Rus.avi
Format : AVI
Format/Info : Audio Video Interleave
File size : 702 MiB
Duration : 1h 24mn
Overall bit rate : 1 164 Kbps
Writing application : VirtualDubMod 1.4.13
Writing library : VirtualDub build 32817/release
Video
ID : 0
Format : MPEG-4 Visual
Format profile : Simple@L3
Format settings, BVOP : No
Format settings, QPel : No
Format settings, GMC : No warppoints
Format settings, Matrix : Default (H.263)
Codec ID : XVID
Codec ID/Hint : XviD
Duration : 1h 24mn
Bit rate : 1 024 Kbps
Width : 640 pixels
Height : 256 pixels
Display aspect ratio : 2.500
Frame rate : 29.970 fps
Color space : YUV
Chroma subsampling : 4:2:0
Bit depth : 8 bits
Scan type : Progressive
Compression mode : Lossy
Bits/(Pixel*Frame) : 0.209
Stream size : 618 MiB (88%)
Writing library : XviD 1.2.1 (UTC 2008-12-04)
Audio
ID : 1
Format : MPEG Audio
Format version : Version 1
Format profile : Layer 3
Mode : Joint stereo
Mode extension : MS Stereo
Codec ID : 55
Codec ID/Hint : MP3
Duration : 1h 24mn
Bit rate mode : Constant
Bit rate : 128 Kbps
Channel(s) : 2 channels
Sampling rate : 48.0 KHz
Compression mode : Lossy
Stream size : 77.2 MiB (11%)
Alignment : Split accross interleaves
Interleave, duration : 33 ms (1.00 video frame)
Interleave, preload duration : 500 ms

Скриншот c названием фильма

Скриншоты

[Профиль] [ЛС]

Создавать темы 06-Авг-2015 23:10 (спустя 11 месяцев 21 день)

Топик был перенесен из форума Фильмы до 2014 года в форум Фильмы до 2012 года
sergej644
 

Создавать темы 12-Июн-2016 08:48 (спустя 1 год 9 месяцев)

Топик был перенесен из форума Фильмы 2011 года в форум Фильмы 2009 года
Russian Mafia
 
Кто просматривает тему:

Форум Тема Автор Размер
Боевики, детективы, триллеры Джеффри Дивер – Линкольн Райм 8. Разбитое окно (2012) MP3 Swager 934 MB
Фильмы 2010 года Женщина со сломанным носом / Женщина с разбитым носом / Zena sa slomljenim nosem (Срджан Колевич / Srdjan Koljevic) [2010, Сербия, Германия, Драма, мелодрама, DVDRip] (yugo45) + Sub Rus TorrentFilm 1.37 GB
Отечественные cериалы Менты 15: Улицы разбитых фонарей [01-24 из 24] (2015) SATRip BOSS 14.93 GB
Отечественные cериалы Менты 15: Улицы разбитых фонарей [S15] (2015) HDTV 1080i Russian Mafia 65.41 GB
Отечественные cериалы Менты 15: Улицы разбитых фонарей [S15] (2015) HDTVRip 720p Russian Mafia 37.33 GB
Отечественные cериалы Разбитые сердца [01-02 из 02] (2016) HDTVRip достали все 2.74 GB
Отечественные cериалы Разбитые сердца [01-02 из 02] (2016) HDTVRip-AVC от Files-x Russian Mafia 2.73 GB
Фильмы 2010 года Этот фильм разбит / This Movie Is Broken (Брюс МакДональд / Bruce McDonald) [2010, Канада, драма, мелодрама, музыка, DVDRip] VO (Маринко Пэ) painkiller 701 MB
Показать сообщения:    

Текущее время: Сегодня 20:58

Часовой пояс: GMT



Вы не можете начинать темы
Вы не можете отвечать на сообщения
Вы не можете редактировать свои сообщения
Вы не можете удалять свои сообщения
Вы не можете голосовать в опросах
Вы не можете прикреплять файлы к сообщениям
Вы не можете скачивать файлы