Рабство / Trade (Марко Кройцпайнтнер / Marco Kreuzpaintner) [2007, Германия, США, триллер, драма, криминал, WEB-DLRip] MVO (Парадиз Видео) + MVO (ОРТ) + Sub Rus, Eng + Original Eng

 
Автор Сообщение

TorrentFilm ®

Пол:

Стаж: 2 года

Сообщений: 7741



Награды: Нет

Торрент-статистика

Создавать темы 17-Мар-2015 00:01

[Цитировать]

Рабство / Trade
Страна: Германия, США
Жанр: триллер, драма, криминал
Год выпуска: 2007
Продолжительность: 01:59:33
Перевод: Профессиональный (многоголосый закадровый) - DVD R5 - «Парадиз Видео», 2007
Перевод: Профессиональный (многоголосый закадровый) - ОРТ
Cубтитры: русские, английские, английские (вшитые на испанскую речь)
Оригинальная аудиодорожка: английский

Режиссер: Марко Кройцпайнтнер / Marco Kreuzpaintner
В ролях: Кевин Клайн, Сизар Рамос, Алиция Бахледа, Паулина Гайтан, Марко Перес, Линда Эмонд, Зак Уорд, Кейт дель Кастильо, Тим Рейд, Павел Личникофф, Наталия Травен, Гильермо Иван, Кристиан Васкес, Хосе Сефами, Кэтлин Гати, Энтони Кривелло, Уильям Стерчи, Хулио Эскалеро, Рио Александр, Эйми-Линн Чедвик, Бо Грей, Джош Берри, Лена Бэран, Лариса Еремина
Описание: В Мехико группа преступников похищает 13-летнюю девочку Адриану для продажи в сексуальное рабство. Одновременно с похищением Адрианы в Мексику прибывают молодые девушки, которые приехали якобы по набору в модельное агентство. Прямо в здании аэропорта у них отбирают документы и увозят для продажи в сексуальное рабство. В фильме судьбы Адрианы и этих девушек переплетаются. 17-летний брат Хорхе начинает поиски сестры Адрианы. Юноша решает бросить вызов обстоятельствам, но он оказывается не одинок в своем горе, на помощь ему приходит полицейский Рэй, у которого подобным же образом украли молодую дочь. Вместе они пытаются противостоять преступному бизнесу и вызволить девушек из страшного и порочного плена.
Качество видео: WEB-DLRip
Формат видео: AVI
Видео: 720x304 (2.37:1), 23.976 fps, XviD build 73 ~2158 kbps avg, 0.41 bit/pixel
Аудио: 48 kHz, AC3 Dolby Digital, 3/2 (L,C,R,l,r) + LFE ch, ~448 kbps - Парадиз
отдельными файлами:
Аудио: 48 kHz, AC3 Dolby Digital, 3/2 (L,C,R,l,r) + LFE ch, ~448 kbps - ОРТ
Аудио: 48 kHz, AC3 Dolby Digital, 3/2 (L,C,R,l,r) + LFE ch, ~384 kbps - оригинал

MediaInfo

Общее
Полное имя : H:\Trade.2007.web-dlrip_[2.18]_[teko]\Trade.2007.web-dlrip_[2.18].avi
Формат : AVI
Формат/Информация : Audio Video Interleave
Профиль формата : OpenDML
Размер файла : 2,18 Гбайт
Продолжительность : 1 ч. 59 м.
Общий поток : 2613 Кбит/сек
Программа кодирования : VirtualDubMod 1.5.10.3 | www.virtualdub-fr.org || (build 2550/release)
Библиотека кодирования : VirtualDubMod build 2550/release
Видео
Идентификатор : 0
Формат : MPEG-4 Visual
Профиль формата : Advanced Simple@L5
Параметр BVOP формата : 1
Параметр QPel формата : Нет
Параметр GMC формата : Без точки перехода
Параметр матрицы формата : Выборочная
Идентификатор кодека : XVID
Идентификатор кодека/Подсказка : XviD
Продолжительность : 1 ч. 59 м.
Битрейт : 2153 Кбит/сек
Ширина : 720 пикселей
Высота : 304 пикселя
Соотношение сторон : 2,35:1
Частота кадров : 23,976 кадра/сек
Цветовое пространство : YUV
Субдискретизация насыщенности : 4:2:0
Битовая глубина : 8 бит
Тип развёртки : Прогрессивная
Метод сжатия : С потерями
Бит/(Пиксели*Кадры) : 0.410
Размер потока : 1,80 Гбайт (82%)
Библиотека кодирования : XviD 73
Аудио
Идентификатор : 1
Формат : AC-3
Формат/Информация : Audio Coding 3
Расширение режима : CM (complete main)
Параметр Endianness формата : Big
Идентификатор кодека : 2000
Продолжительность : 1 ч. 59 м.
Вид битрейта : Постоянный
Битрейт : 448 Кбит/сек
Каналы : 6 каналов
Расположение каналов : Front: L C R, Side: L R, LFE
Частота : 48,0 КГц
Битовая глубина : 16 бит
Метод сжатия : С потерями
Размер потока : 383 Мбайт (17%)
Выравнивание : Разделение по промежуткам
Продолжительность промежутка : 42 мс. (1,00 видеокадр)
Время предзагрузки промежутка : 500 мс.

-
-
[Профиль] [ЛС]

Создавать темы 06-Авг-2015 22:40 (спустя 4 месяца 20 дней)

Топик был перенесен из форума Фильмы до 2014 года в форум Фильмы до 2012 года
sergej644
 
Показать сообщения:    

Текущее время: Сегодня 22:09

Часовой пояс: GMT



Вы не можете начинать темы
Вы не можете отвечать на сообщения
Вы не можете редактировать свои сообщения
Вы не можете удалять свои сообщения
Вы не можете голосовать в опросах
Вы не можете прикреплять файлы к сообщениям
Вы не можете скачивать файлы