Работа над ошибками (Сергей Гиргель) [2015, Россия, мелодрама, HDTV 1080i]

 
Автор Сообщение

TorrentFilm ®

Пол:

Стаж: 2 года

Сообщений: 7741



Награды: Нет

Торрент-статистика

Создавать темы 21-Мар-2016 00:08

[Цитировать]

Работа над ошибками- -Страна: Россия
Жанр: мелодрама
Год выпуска: 2015
Производство: «Медиапрофсоюз»
Продолжительность: 01:41:10
Оригинальная аудиодорожка: русский
Cубтитры: нет-Режиссер: Сергей Гиргель-В ролях:
Ольга Бурлакова, Александр Никитин, Михаил Дорожкин, Татьяна Гаркуша, Наталья Цуба,
Вера Полякова, Александр Душечкин, Даша Отрошко, Владимир Мищанчук, Александра Гайдук-Описание:
Мария — учительница русского языка и литературы. Она учит детей не делать ошибок, однако ей самой предстоит совершить настоящую «работу над ошибками». Личная жизнь Марии не устроена — героиня не может забыть и простить свою первую большую любовь, Олега, который уехал из родного города и, как думает Мария, бросил ее. Груз прошлого не дает ей идти вперед. Но однажды в город возвращается Олег. Кажется, что после семнадцати лет разлуки чувства оживают вновь, и что сделанные ошибки можно исправить. Оказывается, исправить можно не все.-Возраст: 12+-Качество: HDTV (1080i)
Формат: TS
Видео кодек: AVC
Аудио кодек: MPEG Audio

Видео: AVC, 1920 х 1080 (16:9), 25,000 кадр/сек, 7 860 Кбит/сек, 0.152 bit/pixel
Аудио: MPEG Audio 2, 48000 Hz, 256 Kbps, 2 канала
-

MediaInfo

General
ID : 1 (0x1)
Complete name : D:\Раздачи\Работа над ошибками HDTV (1080i)\Работа над ошибками HDTV (1080i).ts
Format : MPEG-TS
File size : 6.04 GiB
Duration : 1h 41mn
Overall bit rate mode : Variable
Overall bit rate : 8 541 Kbps
Video
ID : 2911 (0xB5F)
Menu ID : 1009 (0x3F1)
Format : AVC
Format/Info : Advanced Video Codec
Format profile : High@L4
Format settings, CABAC : Yes
Format settings, ReFrames : 4 frames
Codec ID : 27
Duration : 1h 41mn
Bit rate : 7 860 Kbps
Width : 1 920 pixels
Height : 1 080 pixels
Display aspect ratio : 16:9
Frame rate : 25.000 fps
Color space : YUV
Chroma subsampling : 4:2:0
Bit depth : 8 bits
Scan type : MBAFF
Scan type, store method : Interleaved fields
Scan order : Top Field First
Bits/(Pixel*Frame) : 0.152
Stream size : 5.56 GiB (92%)
Audio
ID : 2912 (0xB60)
Menu ID : 1009 (0x3F1)
Format : MPEG Audio
Format version : Version 1
Format profile : Layer 2
Codec ID : 3
Duration : 1h 41mn
Bit rate mode : Constant
Bit rate : 256 Kbps
Channel(s) : 2 channels
Sampling rate : 48.0 KHz
Compression mode : Lossy
Delay relative to video : -80ms
Stream size : 185 MiB (3%)
Language : Russian

Скриншоты


-Раздаю до первых 5-ти скачавших, на раздачи не возвращаюсь...-
[Профиль] [ЛС]
Показать сообщения:    

Текущее время: Сегодня 04:49

Часовой пояс: GMT



Вы не можете начинать темы
Вы не можете отвечать на сообщения
Вы не можете редактировать свои сообщения
Вы не можете удалять свои сообщения
Вы не можете голосовать в опросах
Вы не можете прикреплять файлы к сообщениям
Вы не можете скачивать файлы