Пpokлятье в 3Д / Sаdаkо 3D (Цутому Ханабуса / Tsutomu Hanabusa) [2012, ужасы, триллер, BDRip-AVC] Half OverUnder / Вертикальная анаморфная стереопара

 
Автор Сообщение

TorrentFilm ®

Пол:

Стаж: 2 года

Сообщений: 7741



Награды: Нет

Торрент-статистика

Создавать темы 02-Янв-2016 00:01

[Цитировать]


Пpokлятье в 3Д / Sаdаkо 3D
Год выпуска: 2012
Страна: Япония
Студия: Kadokawa Pictures, Kansai Telecasting (KTV), Shizuoka Telecasting, Tohokushinsha Film Corporation, Tokai Television Broadcast Company
Слоган: «Она вернулась»
Жанр: ужасы, триллер
Продолжительность: 01:36:13
Перевод: Профессиональный (дублированный) + оригинальная аудиодорога
Русские субтитры: нет
Режиссёр: Цутому Ханабуса / Tsutomu Hanabusa
В ролях: Сатоми Ишихара, Коджи Сето, Тсутому Такахаши, Шота Сомея, Хикари Такара, Юсуке Ямамото, Рёусеи Таяма, Аи Хашимото
Роли дублировали: Александр Гаврилин, Владимир Рыбальченко
Описание:
В школе для девочек ходят слухи, что в Интернет есть «проклятый» файл, в котором запечатлено самоубийство. Все, кто увидят это видео, убивают себя. Поначалу учительница не верит слухам, но когда одна из учениц кончает с собой, женщина решает разобраться. Отыскав в Интернете злополучный файл, она едва не погибает вместе со своим бойфрендом. Ей удается узнать, что файл пытается вызвать к жизни безумную Садако, чье проклятье распространялось через видеокассету в предыдущих фильмаx. И ему это удается. Героине предстоит финальная битва с Садако за свою жизнь и жизнь своего любимого.
Качество: BDRip-AVC, 1080p
Контейнер: MKV
Формат 3D: Half OverUnder / Вертикальная анаморфная стереопара
Порядок ракурсов: левый ракурс первый
Видео кодек: x264
Аудио кодек: AC3
Видео: AVC / High@L4.1 / 2 pass / 23,976 fps / 1920х1080p / 11,2 Мbps / 0.225
Аудио 1: AC3 / 5.1 ch / 448 kbps / Русский дубляж
Аудио 2: AC3 / 5.1 ch / 640 kbps / Original японский
Субтитры: английские полные [PGS]
Дополнительно: Сохранены оригинальные чаптеры как на Blu-ray
Рип от: Killbrain
----------------------------------------------------------------------------------------

----------------------------------------------------------------------------------------
Проверено на оборудовании:
3D медиаплеер: iconBIT XDS73D
3D телевизор: 3D LED-Телевизор 40" Samsung UE40 ES6850M
----------------------------------------------------------------------------------------

Дополнительно о фильме:

Технические детали съёмки:

Log x264:

MediaInfo:

Общее
Уникальный идентификатор : 199838587541916572543596774560234579090 (0x965783110FFE654298F66BC19061A492)
Полное имя : F:\Скачка торрент\Sadako.3D.2012.BDRip1080p.HalfOU(Killbrain).mkv
Формат : Matroska
Версия формата : Version 2
Размер файла : 8,25 Гбайт
Продолжительность : 1 ч. 36 м.
Общий поток : 12,3 Мбит/сек
Название фильма : Sadako 3D (2012) by Killbrain
Дата кодирования : UTC 2012-11-05 12:05:08
Программа кодирования : mkvmerge v5.8.0 ('No Sleep / Pillow') built on Sep 2 2012 15:37:04
Библиотека кодирования : libebml v1.2.3 + libmatroska v1.3.0
Видео
Идентификатор : 1
Формат : AVC
Формат/Информация : Advanced Video Codec
Профиль формата : High@L4.1
Параметр CABAC формата : Да
Параметр ReFrames формата : 4 кадра
Идентификатор кодека : V_MPEG4/ISO/AVC
Продолжительность : 1 ч. 36 м.
Битрейт : 11,2 Мбит/сек
Ширина : 1920 пикселей
Высота : 1080 пикселей
Соотношение сторон : 16:9
Режим частоты кадров : Постоянный
Частота кадров : 23,976 кадра/сек
Цветовое пространство : YUV
Субдискретизация насыщенности : 4:2:0
Битовая глубина : 8 бит
Тип развёртки : Прогрессивная
Бит/(Пиксели*Кадры) : 0.225
Размер потока : 7,36 Гбайт (89%)
Заголовок : Sadako 3D (2012)
Библиотека кодирования : x264 core 128 r2216 198a7ea
Настройки программы : cabac=1 / ref=4 / deblock=1:-3:-3 / analyse=0x3:0x113 / me=umh / subme=9 / psy=1 / psy_rd=1.00:0.15 / mixed_ref=1 / me_range=16 / chroma_me=1 / trellis=2 / 8x8dct=1 / cqm=0 / deadzone=21,11 / fast_pskip=1 / chroma_qp_offset=-3 / threads=3 / lookahead_threads=1 / sliced_threads=0 / slices=4 / nr=0 / decimate=1 / interlaced=0 / bluray_compat=0 / constrained_intra=0 / bframes=6 / b_pyramid=2 / b_adapt=2 / b_bias=0 / direct=3 / weightb=1 / open_gop=0 / weightp=2 / keyint=240 / keyint_min=23 / scenecut=40 / intra_refresh=0 / rc_lookahead=60 / rc=2pass / mbtree=1 / bitrate=11200 / ratetol=1.0 / qcomp=0.70 / qpmin=0 / qpmax=69 / qpstep=4 / cplxblur=20.0 / qblur=0.5 / vbv_maxrate=40000 / vbv_bufsize=40000 / nal_hrd=none / frame-packing=4 / ip_ratio=1.40 / aq=1:0.70
Язык : English
Default : Да
Forced : Нет
Аудио #1
Идентификатор : 2
Формат : AC-3
Формат/Информация : Audio Coding 3
Расширение режима : CM (complete main)
Параметр Endianness формата : Big
Идентификатор кодека : A_AC3
Продолжительность : 1 ч. 36 м.
Вид битрейта : Постоянный
Битрейт : 448 Кбит/сек
Каналы : 6 каналов
Расположение каналов : Front: L C R, Side: L R, LFE
Частота : 48,0 КГц
Битовая глубина : 16 бит
Метод сжатия : С потерями
Размер потока : 308 Мбайт (4%)
Заголовок : AC3 / 5.1 ch / 448 kbps / Русский дубляж
Язык : Russian
Default : Да
Forced : Нет
Аудио #2
Идентификатор : 3
Формат : AC-3
Формат/Информация : Audio Coding 3
Расширение режима : CM (complete main)
Параметр Endianness формата : Big
Идентификатор кодека : A_AC3
Продолжительность : 1 ч. 36 м.
Вид битрейта : Постоянный
Битрейт : 640 Кбит/сек
Каналы : 6 каналов
Расположение каналов : Front: L C R, Side: L R, LFE
Частота : 48,0 КГц
Битовая глубина : 16 бит
Метод сжатия : С потерями
Размер потока : 440 Мбайт (5%)
Заголовок : AC3 / 5.1 ch / 640 kbps / Japan
Язык : Japan
Default : Нет
Forced : Нет
Текст
Идентификатор : 4
Формат : PGS
Режим смешивания : zlib
Идентификатор кодека : S_HDMV/PGS
Идентификатор кодека/Информация : The same subtitle format used on BDs/HD-DVDs
Заголовок : English Full [PGS]
Язык : English
Default : Нет
Forced : Нет
Меню
00:00:00.000 : :Chapter 01
00:08:16.454 : :Chapter 02
00:16:52.761 : :Chapter 03
00:24:46.443 : :Chapter 04
00:32:01.419 : :Chapter 05
00:40:10.199 : :Chapter 06
00:48:10.470 : :Chapter 07
00:55:16.146 : :Chapter 08
01:04:18.187 : :Chapter 09
01:12:27.301 : :Chapter 10
01:20:31.493 : :Chapter 11
01:31:51.088 : :Chapter 12

Скриншоты:

Чёрно-белые скриншоты в анаглифе для оценки качества 3Д:

Немного рецензий с Кинопоиска.Ру:



[Профиль] [ЛС]
Кто просматривает тему:

Показать сообщения:    

Текущее время: Сегодня 06:26

Часовой пояс: GMT



Вы не можете начинать темы
Вы не можете отвечать на сообщения
Вы не можете редактировать свои сообщения
Вы не можете удалять свои сообщения
Вы не можете голосовать в опросах
Вы не можете прикреплять файлы к сообщениям
Вы не можете скачивать файлы