Пpokлятье в 3Д / Sаdаkо 3D (Цутому Ханабуса / Tsutomu Hanabusa) [2012, ужасы, триллер, BDrip, 1080p] OverUnder / Вертикальная стереопара

 
Автор Сообщение

TorrentFilm ®

Пол:

Стаж: 2 года

Сообщений: 7741



Награды: Нет

Торрент-статистика

Создавать темы 01-Янв-2016 00:09

[Цитировать]

Пpokлятье / Sаdаkо
Год выпуска: 2012
Страна: Япония
Студия: Kadokawa Pictures, Kansai Telecasting (KTV), Shizuoka Telecasting, Tohokushinsha Film Corporation, Tokai Television Broadcast Company
Жанр: ужасы, триллер
Продолжительность: 01:36:13
Перевод: Профессиональный (дублированный)
Русские субтитры: нет
Режиссер на русском: Цутому Ханабуса
Режиссер на английском: Tsutomu Hanabusa
В ролях: Сатоми Ишихара, Коджи Сето, Тсутому Такахаши, Шота Сомея, Хикари Такара, Юсуке Ямамото, Рёусеи Таяма, Аи Хашимото
Роли озвучивали: Александр Гаврилин, Владимир Рыбальченко
Описание: В школе для девочек ходят слухи, что в Интернет есть «проклятый» файл, в котором запечатлено самоубийство. Все, кто увидят это видео, убивают себя. Поначалу учительница не верит слухам, но когда одна из учениц кончает с собой, женщина решает разобраться. Отыскав в Интернете злополучный файл, она едва не погибает вместе со своим бойфрендом. Ей удается узнать, что файл пытается вызвать к жизни безумную Садако, чье проклятье распространялось через видеокассету в предыдущих фильмаx. И ему это удается. Героине предстоит финальная битва с Садако за свою жизнь и жизнь своего любимого.
Качество: BDrip
Контейнер: MKV
Формат 3D: OverUnder / Вертикальная стереопара
Порядок ракурсов: левый ракурс первый
Видео кодек: x264
Аудио кодек: AC3
Видео: AVC, High@L5.0, 1920x2160, 23.976 fps, 26.5 Mbps
Аудио: Русский / AC3 / 48 KHz / 5.1 ch / 448 Kbps
Аудио 2: Японский / AC3 / 48 KHz / 5.1 ch / 640 kbps
ВНИМАНИЕ ! На встроенных ТВ-плейерах работать не будет!!!
Проверено 3D медиаплеер: Dune HD Smart D1

MediaInfo

General
Unique ID : 231933346659499313763777681855004422417 (0xAE7CBCDCBF7E5B7EA0EB535E7F7A3111)
Complete name : D:\закачки\Sаdаkо.mkv
Format : Matroska
Format version : Version 2
File size : 19.0 GiB
Duration : 1h 36mn
Overall bit rate : 28.2 Mbps
Encoded date : UTC 2012-11-05 13:18:10
Writing application : mkvmerge v3.4.0 ('Rapunzel') сборка от May 15 2010 09:38:20
Writing library : libebml v0.8.0 + libmatroska v0.9.0
Video
ID : 1
Format : AVC
Format/Info : Advanced Video Codec
Format profile : High@L5.0
Format settings, CABAC : Yes
Format settings, ReFrames : 4 frames
Codec ID : V_MPEG4/ISO/AVC
Duration : 1h 36mn
Bit rate : 26.5 Mbps
Width : 1 920 pixels
Height : 2 160 pixels
Display aspect ratio : 0.889
Frame rate : 23.976 fps
Color space : YUV
Chroma subsampling : 4:2:0
Bit depth : 8 bits
Scan type : Progressive
Bits/(Pixel*Frame) : 0.267
Stream size : 17.8 GiB (94%)
Title : Rip by SeRoGa00
Writing library : x264 core 128 r2216kMod 198a7ea
Encoding settings : cabac=1 / ref=4 / deblock=1:-3:-3 / analyse=0x3:0x113 / me=umh / subme=9 / psy=1 / fade_compensate=0.00 / psy_rd=1.00:0.15 / mixed_ref=1 / me_range=16 / chroma_me=1 / trellis=2 / 8x8dct=1 / cqm=0 / deadzone=21,11 / fast_pskip=1 / chroma_qp_offset=-3 / threads=9 / lookahead_threads=1 / sliced_threads=0 / nr=0 / decimate=1 / interlaced=0 / bluray_compat=0 / constrained_intra=0 / bframes=6 / b_pyramid=2 / b_adapt=2 / b_bias=0 / direct=3 / weightb=1 / open_gop=0 / weightp=2 / keyint=250 / keyint_min=23 / scenecut=40 / intra_refresh=0 / rc_lookahead=60 / rc=crf / mbtree=1 / crf=18.0000 / qcomp=0.60 / qpmin=10 / qpmax=69 / qpstep=4 / vbv_maxrate=40000 / vbv_bufsize=40000 / crf_max=0.0 / nal_hrd=none / ip_ratio=1.40 / aq=1:1.00
Language : English
Default : Yes
Forced : No
Audio #1
ID : 2
Format : AC-3
Format/Info : Audio Coding 3
Mode extension : CM (complete main)
Format settings, Endianness : Big
Codec ID : A_AC3
Duration : 1h 36mn
Bit rate mode : Constant
Bit rate : 448 Kbps
Channel(s) : 6 channels
Channel positions : Front: L C R, Side: L R, LFE
Sampling rate : 48.0 KHz
Bit depth : 16 bits
Compression mode : Lossy
Stream size : 308 MiB (2%)
Language : Russian
Default : Yes
Forced : No
Audio #2
ID : 3
Format : AC-3
Format/Info : Audio Coding 3
Mode extension : CM (complete main)
Format settings, Endianness : Big
Codec ID : A_AC3
Duration : 1h 36mn
Bit rate mode : Constant
Bit rate : 640 Kbps
Channel(s) : 6 channels
Channel positions : Front: L C R, Side: L R, LFE
Sampling rate : 48.0 KHz
Bit depth : 16 bits
Compression mode : Lossy
Stream size : 440 MiB (2%)
Language : English
Default : No
Forced : No

Скриншоты


[Профиль] [ЛС]
Кто просматривает тему:

Показать сообщения:    

Текущее время: Сегодня 09:11

Часовой пояс: GMT



Вы не можете начинать темы
Вы не можете отвечать на сообщения
Вы не можете редактировать свои сообщения
Вы не можете удалять свои сообщения
Вы не можете голосовать в опросах
Вы не можете прикреплять файлы к сообщениям
Вы не можете скачивать файлы