Пapк Юpcкoгo пepиoдa в 3Д / Jurаssiс Раrk 3D (Cтивeн Cпилбepг / Stеvеn Sрiеlbеrg) [1993, Приключения, Фантастика, Семейный, BDrip, 1080p] Anaglyph RAV / Анаглиф RAV

 
Автор Сообщение

TorrentFilm ®

Пол:

Стаж: 2 года

Сообщений: 7741



Награды: Нет

Торрент-статистика

Создавать темы 01-Янв-2016 00:13

[Цитировать]

Пapк Юpcкoгo пepиoдa / Jurаssiс Раrk
Год выпуска: 1993 (релиз в 3D в 2013)
Страна: США
Студия: Universal Pictures, Amblin Entertainment
Жанр: Приключения, Фантастика, Семейный
Продолжительность: 02:06:49
Перевод: Профессиональный (многоголосый закадровый)
Русские субтитры: нет
Режиссер: Cтивeн Cпилбepг / Stеvеn Sрiеlbеrg
В ролях:
Dr. Alan Grant - Сэм Нил
Dr. Ellie Sattler - Лора Дерн
Dr. Ian Malcolm - Джефф Голдблюм
John Hammond - Ричард Аттенборо
Tim Murphy - Джозеф Маццелло
Lex Murphy - Ариана Ричардс
Dennis Nedry - Уэйн Найт
Robert Muldoon - Боб Пек
Donald Gennaro - Мартин Ферреро
Ray Arnold - Сэмюэл Л. Джексон
Henry Wu - Б.Д. Вонг
Описание: Экспансивный богач и профессор уговаривает пару ученых-палеонтологов приехать на остров у побережья Коста-Рики, где он устроил реликтовый парк. В парке этом водятся древние зверушки — динозавры, которые по его идее и должны стать гвоздем программы нового аттракциона.
До открытия остается несколько дней, а один из работников, пытаясь продать «рассаду» налево, нарушает систему охраны, что в комплексе с грозовым ливнем приводит к тому, что доисторические животные оказываются на воле, где действуют в соответствии со своими инстинктами.
Качество: BDrip
Контейнер: MKV
Формат 3D: Анаглиф red-cyan (RAV)
Видео кодек: x264
Аудио кодек: AC3
Видео: V_MPEG4/ISO/AVC 1920x1080 23.976fps 8 446 Kbps
Аудио: Русский / Профессиональный (многоголосый закадровый) AC3 48000Hz 6ch 448 Kbps
Бонус: Рингтон Jurassic Park (Для тех кто помнит Денди)

MediaInfo

General
Unique ID : 209735840137471084196930273473357895718 (0x9DC9A74B5485383586BF757827875826)
Complete name : E:\3D\Films\anagliph\Jurassic_park_3D_RAV.mkv
Format : Matroska
Format version : Version 2
File size : 8.04 GiB
Duration : 2h 6mn
Overall bit rate : 9 074 Kbps
Encoded date : UTC 2013-04-23 10:08:54
Writing application : mkvmerge v4.4.0 ('Die Wiederkehr') сборка от Oct 31 2010 21:52:48
Writing library : libebml v1.0.0 + libmatroska v1.0.0
Video
ID : 1
Format : AVC
Format/Info : Advanced Video Codec
Format profile : High@L4.1
Format settings, CABAC : Yes
Format settings, ReFrames : 4 frames
Codec ID : V_MPEG4/ISO/AVC
Duration : 2h 6mn
Bit rate : 8 446 Kbps
Width : 1 920 pixels
Height : 1 080 pixels
Display aspect ratio : 16:9
Frame rate mode : Constant
Frame rate : 23.976 fps
Color space : YUV
Chroma subsampling : 4:2:0
Bit depth : 8 bits
Scan type : Progressive
Bits/(Pixel*Frame) : 0.170
Stream size : 7.48 GiB (93%)
Title : RAV-Anaglyph by Boss-Master
Writing library : x264 core 116 r2074 2641b9e
Encoding settings : cabac=1 / ref=4 / deblock=1:-3:-3 / analyse=0x3:0x113 / me=umh / subme=9 / psy=1 / psy_rd=1.00:0.15 / mixed_ref=1 / me_range=32 / chroma_me=1 / trellis=2 / 8x8dct=1 / cqm=0 / deadzone=21,11 / fast_pskip=1 / chroma_qp_offset=-3 / threads=6 / sliced_threads=0 / nr=0 / decimate=1 / interlaced=0 / bluray_compat=0 / constrained_intra=0 / bframes=6 / b_pyramid=2 / b_adapt=2 / b_bias=0 / direct=3 / weightb=1 / open_gop=0 / weightp=2 / keyint=250 / keyint_min=23 / scenecut=40 / intra_refresh=0 / rc_lookahead=60 / rc=crf / mbtree=1 / crf=18.0 / qcomp=0.60 / qpmin=0 / qpmax=69 / qpstep=4 / vbv_maxrate=40000 / vbv_bufsize=40000 / crf_max=0.0 / nal_hrd=none / ip_ratio=1.40 / aq=1:0.70
Language : English
Default : Yes
Forced : No
Audio
ID : 2
Format : AC-3
Format/Info : Audio Coding 3
Mode extension : CM (complete main)
Format settings, Endianness : Big
Codec ID : A_AC3
Duration : 2h 6mn
Bit rate mode : Constant
Bit rate : 448 Kbps
Channel(s) : 6 channels
Channel positions : Front: L C R, Side: L R, LFE
Sampling rate : 48.0 KHz
Bit depth : 16 bits
Compression mode : Lossy
Stream size : 406 MiB (5%)
Language : Russian
Default : Yes
Forced : No
Menu
00:00:00.000 : en:00:00:00.000
00:05:22.489 : en:00:05:22.489
00:10:17.700 : en:00:10:17.700
00:15:20.336 : en:00:15:20.336
00:19:36.759 : en:00:19:36.759
00:23:50.596 : en:00:23:50.596
00:31:44.402 : en:00:31:44.402
00:38:03.823 : en:00:38:03.823
00:40:31.471 : en:00:40:31.471
00:55:33.705 : en:00:55:33.705
01:01:49.289 : en:01:01:49.289
01:10:50.705 : en:01:10:50.705
01:20:08.303 : en:01:20:08.303
01:34:11.980 : en:01:34:11.980
01:39:53.654 : en:01:39:53.654
01:43:51.767 : en:01:43:51.767
01:48:05.688 : en:01:48:05.688
01:54:54.638 : en:01:54:54.638
01:58:13.837 : en:01:58:13.837
02:00:05.532 : en:02:00:05.532

Скриншоты

Внимание! Для просмотра нужны анаглифные очки красно-синезеленые и обычный (не 3D) телевизор или монитор
Другие мои раздачи в Анаглифе Дюбуа и RAV
[Профиль] [ЛС]
Показать сообщения:    

Текущее время: Сегодня 10:53

Часовой пояс: GMT



Вы не можете начинать темы
Вы не можете отвечать на сообщения
Вы не можете редактировать свои сообщения
Вы не можете удалять свои сообщения
Вы не можете голосовать в опросах
Вы не можете прикреплять файлы к сообщениям
Вы не можете скачивать файлы