Пять минаретов в Нью-Йорке / Five Minarets in New York (Махсун Кырмызыгюль / Mahsun Kırmızıgül) [2010, Турция, США, Драма, триллер, BDRip] MVO (ABC Distribution) + DVO (IVI)

 
Автор Сообщение

TorrentFilm ®

Пол:

Стаж: 2 года

Сообщений: 7741



Награды: Нет

Торрент-статистика

Создавать темы 01-Апр-2016 00:09

[Цитировать]

Пять минаретов в Нью-Йорке / Five Minarets in New York
Страна: Турция, США
Жанр: Драма, триллер
Год выпуска: 2010
Продолжительность: 01:56:30
Перевод: Профессиональный (многоголосый закадровый) ABC Distribution
Перевод 2: Профессиональный (двухголосый закадровый) IVI
Cубтитры: нет
Режиссер: Махсун Кырмызыгюль / Mahsun Kırmızıgül
В ролях: Халук Бильгинер, Денни Гловер, Джина Гершон, Махсун Кырмызыгюль, Роберт Патрик, Мустафа Сандал, Скотт Уильям Уинтерс, Шарриефф Паг, Энгин Алтан Дюзйатан, Джастин Котсонас, Зафер Эргин, Салих Калйон, Хюсеин Авни Данйал, Али Сюрмели, Тайфун Сав, Али Гюней
Описание: Американо-турецкая криминальная драма «Пять минаретов в Нью-Йорке» держит зрителя в напряжении до последнего кадра. Мастерская работа творческого коллектива двух стран. Драматические события фильма попеременно разворачиваются в Нью-Йорке и в Турции. Американская спецслужба выслеживает и арестовывает подозреваемого в терроризме богослова Даджала. В Стамбуле расследуют гибель человека в результате взрыва автомобиля, а также поднимают старое дело по политическому убийству, совершенному тридцать лет назад. В обоих преступлениях обвиняют того же Даджала. Для экстрадиции в Турцию опасного преступника в Нью-Йорк пребывают двое турецких полицейских. Один из них служит в Стамбуле, а другой — в Восточной провинции страны. В финале фильма выясняется, что этот полицейский родом из городка Битлис, расположенного на берегу озера Ван. В этом городке и разыгралась настоящая драма...
Доп. информация: Дорожка #1 записана с телеканала ON TV, за запись огромная благодарность N_Reyes. Сведение звука rafwan123
Дорожка #2 найдена в сети.
Аналогичные раздачи - [url=tracker.php?nm=%D0%9F%D1%8F%D1%82%D1%8C%20%D0%BC%D0%B8%D0%BD%D0%B0%D1%80%D0%B5%D1%82%D0%BE%D0%B2%20%D0%B2%20%D0%9D%D1%8C%D1%8E-%D0%99%D0%BE%D1%80%D0%BA%D0%B5%20%2F%20Five%20Minarets%20in%20New%20York]http://torrentfilm.net/forum/tracker.php?nm=%D0%9F%D1...New%20York[/url]
Сэмпл: http://multi-up.com/1095298
Качество видео: BDRip (спасибо teko)
Формат видео: AVI
Видео: MPEG-4 Visual, XviD, 1592 Кбит/с, 720x304 (2.35:1), 23.976 fps, Bits/(Pixel*Frame): 0.303
Аудио: AС3, 192 kbps, 2 ch, 48 kHz - Русский многоголосый
Аудио 2: AС3, 192 kbps, 2 ch, 48 kHz - Русский двухголосый (отдельно в папке)

MediaInfo

General
Complete name: D:\Кино Турции\Five.Minarets.in.New.York.2010.XviD.BDRip\Five.Minarets.in.New.York.2010.XviD.BDRip.avi
Format : AVI
Format/Info : Audio Video Interleave
File size : 1.46 GiB
Duration : 1h 56mn
Overall bit rate : 1 793 Kbps
Writing application : VirtualDubModRus 1.5.10.2 (build 2542/release)
Writing library : VirtualDubMod build 2542/release
Video
ID : 0
Format : MPEG-4 Visual
Format profile : Advanced Simple@L5
Format settings, BVOP : 1
Format settings, QPel : No
Format settings, GMC : No warppoints
Format settings, Matrix : Custom
Codec ID : XVID
Codec ID/Hint : XviD
Duration : 1h 56mn
Bit rate : 1 592 Kbps
Width : 720 pixels
Height : 304 pixels
Display aspect ratio : 2.35:1
Frame rate : 23.976 (23976/1000) fps
Color space : YUV
Chroma subsampling : 4:2:0
Bit depth : 8 bits
Scan type : Progressive
Compression mode : Lossy
Bits/(Pixel*Frame) : 0.303
Stream size : 1.30 GiB (89%)
Writing library : XviD 1.2.1 (UTC 2008-12-04)
Audio
ID : 1
Format : AC-3
Format/Info : Audio Coding 3
Mode extension : CM (complete main)
Format settings, Endianness : Big
Codec ID : 2000
Duration : 1h 56mn
Bit rate mode : Constant
Bit rate : 192 Kbps
Channel(s) : 2 channels
Channel positions : Front: L R
Sampling rate : 48.0 KHz
Frame rate : 31.250 fps (1536 spf)
Compression mode : Lossy
Stream size : 160 MiB (11%)
Alignment : Split accross interleaves
Interleave, duration : 42 ms (1.00 video frame)
Interleave, preload duration : 500 ms

Скриншот c названием фильма

Скриншоты





[Профиль] [ЛС]

Создавать темы 12-Июн-2016 07:53 (спустя 2 месяца 11 дней)

Топик был перенесен из форума Фильмы 2011 года в форум Фильмы 2010 года
Russian Mafia
 
Кто просматривает тему:

Показать сообщения:    

Текущее время: Сегодня 01:29

Часовой пояс: GMT



Вы не можете начинать темы
Вы не можете отвечать на сообщения
Вы не можете редактировать свои сообщения
Вы не можете удалять свои сообщения
Вы не можете голосовать в опросах
Вы не можете прикреплять файлы к сообщениям
Вы не можете скачивать файлы