Пять долларов в день / $5 a Day (Найджел Коул / Nigel Cole) [2008, США, драма, комедия, BDRip-AVC] DVO + Original (Eng) + Sub (Eng)

 
Автор Сообщение

TorrentFilm ®

Пол:

Стаж: 1 год 11 месяцев

Сообщений: 7741



Награды: Нет

Торрент-статистика

Создавать темы 20-Окт-2015 00:07

[Цитировать]

Пять долларов в день
$5 a Day
«The best things in life are free!»


Страна: США
Жанр: драма, комедия
Год выпуска: 2008
Продолжительность: 01:37:46
Перевод: Любительский (двухголосый, закадровый) [Вано & Электричка]
Субтитры: английские
Оригинальная аудиодорожка: Английский
Режиссер: Найджел Коул / Nigel Cole
В ролях: Кристофер Уокен, Алессандро Нивола, Шэрон Стоун, Дин Кэйн, Питер Койот, Аманда Пит, Луис Авалос, Бет Бэйли, Мария Бюва, Фрэнк Бонд, Вик Браудер, Грегори Чейз
Описание:
Фильм строится на конфликте отношений отца и сына. Старый жулик гордится тем, что живет по-королевски всего на пятерку в день. Его отпрыск относится к образу жизни родителя критически. Оно и понятно: в один прекрасный день парень угодил за решетку, расплачиваясь за одно из преступлений папаши.

Релиз:
Автор рипа: Stalker oK
Сэмпл
Качество видео: BDRip-AVC [Blu-ray Remux 1080p]
Формат видео: MKV
Видео кодек: AVC
Аудио кодек: AC3
Видео: 1742 Кбит/сек, 932x484 (1.926), 23,976 кадр/сек, AVC
Аудио #1: русский, 384 Кбит/сек, 48 КГц, 16 бит, 5.1, AC3
Аудио #2: английский, 448 Кбит/сек, 48 КГц, 16 бит, 5.1, AC3 (отдельно)

MediaInfo

Общее
Уникальный идентификатор : 235172486746957309895250292210610423448 (0xB0EC92CC73D6EE2698805448DA374698)
Полное имя : N:\Rips\$5 a Day\$5.a.Day.2008.BDRip-AVC...stalkerok.new-team\$5.a.Day.2008.BDRip-AVC.1.45Gb...stalkerok.new-team.mkv
Формат : Matroska
Размер файла : 1,45 Гбайт
Продолжительность : 1 ч. 37 м.
Общий поток : 2127 Кбит/сек
Название фильма : $5 a Day (2008) (New-Team) (Rip by Stalker oK)
Дата кодирования : UTC 2015-10-17 14:08:12
Программа кодирования : mkvmerge v7.9.0 ('Birds') 64bit
Библиотека кодирования : libebml v1.3.1 + libmatroska v1.4.2
Видео
Идентификатор : 1
Формат : AVC
Формат/Информация : Advanced Video Codec
Профиль формата : High@L4.1
Параметр CABAC формата : Да
Параметр ReFrames формата : 12 кадры
Идентификатор кодека : V_MPEG4/ISO/AVC
Продолжительность : 1 ч. 37 м.
Битрейт : 1742 Кбит/сек
Ширина : 932 пикс.
Высота : 484 пикс.
Соотношение сторон : 1,926
Частота кадров : 23,976 кадр/сек
Цветовое пространство : YUV
Подвыборка цветности : 4:2:0
Битовая глубина : 8 бит
Тип развёртки : Прогрессивная
Бит/(Пиксели*Кадры) : 0.161
Размер потока : 1,16 Гбайт (80%)
Библиотека кодирования : x264 core 146 r2538kMod 121396c
Настройки программы : cabac=1 / ref=12 / deblock=1:-3:-3 / analyse=0x3:0x133 / me=umh / subme=11 / psy=1 / fade_compensate=0.00 / psy_rd=1.05:0.10 / mixed_ref=1 / me_range=48 / chroma_me=1 / trellis=2 / 8x8dct=1 / cqm=0 / deadzone=21,11 / fast_pskip=0 / chroma_qp_offset=-3 / threads=12 / lookahead_threads=3 / sliced_threads=0 / nr=0 / decimate=0 / interlaced=0 / bluray_compat=0 / constrained_intra=0 / fgo=0 / bframes=12 / b_pyramid=2 / b_adapt=2 / b_bias=0 / direct=3 / weightb=1 / open_gop=0 / weightp=2 / keyint=240 / keyint_min=23 / scenecut=40 / intra_refresh=0 / rc_lookahead=40 / rc=2pass / mbtree=0 / bitrate=1742 / ratetol=1.0 / qcomp=0.70 / qpmin=0 / qpmax=69 / qpstep=4 / cplxblur=20.0 / qblur=0.5 / vbv_maxrate=50000 / vbv_bufsize=62500 / nal_hrd=none / filler=0 / ip_ratio=1.40 / pb_ratio=1.30 / aq=3:0.93
Аудио
Идентификатор : 2
Формат : AC-3
Формат/Информация : Audio Coding 3
Расширение режима : CM (complete main)
Идентификатор кодека : A_AC3
Продолжительность : 1 ч. 37 м.
Вид битрейта : Постоянный
Битрейт : 384 Кбит/сек
Канал(ы) : 6 канала(ов)
Расположение каналов : Front: L C R, Side: L R, LFE
Частота : 48,0 КГц
Битовая глубина : 16 бит
Метод сжатия : С потерями
Размер потока : 269 Мбайт (18%)
Заголовок : Двухголосый
Язык : Russian
Текст
Идентификатор : 3
Формат : UTF-8
Идентификатор кодека : S_TEXT/UTF8
Идентификатор кодека/Информация : UTF-8 Plain Text
Язык : English
Общее
Полное имя : N:\Rips\$5 a Day\$5.a.Day.2008.BDRip-AVC...stalkerok.new-team\$5.a.Day.2008.BDRip-AVC.1.45Gb...stalkerok.new-team.ENG.ac3
Формат : AC-3
Формат/Информация : Audio Coding 3
Размер файла : 313 Мбайт
Продолжительность : 1 ч. 37 м.
Общий поток : 448 Кбит/сек
Аудио
Формат : AC-3
Формат/Информация : Audio Coding 3
Расширение режима : CM (complete main)
Продолжительность : 1 ч. 37 м.
Вид битрейта : Постоянный
Битрейт : 448 Кбит/сек
Канал(ы) : 6 канала(ов)
Расположение каналов : Front: L C R, Side: L R, LFE
Частота : 48,0 КГц
Битовая глубина : 16 бит
Метод сжатия : С потерями
Размер потока : 313 Мбайт (100%)

Скриншоты

[Профиль] [ЛС]

Создавать темы 12-Июн-2016 08:50 (спустя 7 месяцев 23 дня)

Топик был перенесен из форума Фильмы 2011 года в форум Фильмы 2006-2008 года
Russian Mafia
 
Кто просматривает тему:

Показать сообщения:    

Текущее время: Сегодня 18:00

Часовой пояс: GMT



Вы не можете начинать темы
Вы не можете отвечать на сообщения
Вы не можете редактировать свои сообщения
Вы не можете удалять свои сообщения
Вы не можете голосовать в опросах
Вы не можете прикреплять файлы к сообщениям
Вы не можете скачивать файлы