Пять вершин России [2013, Документальный, HDTV 1080i]

 
Автор Сообщение

TorrentFilm ®

Пол:

Стаж: 2 года

Сообщений: 7741



Награды: Нет

Торрент-статистика

Создавать темы 29-Дек-2014 00:15

[Цитировать]

Пять вершин России
Год выпуска: 2013
Страна: Россия
Жанр: Документальный
Продолжительность: 00:26:00
Описание:
Проект посвящен пяти самым высоким точкам России — ее символам и ее гордости. Эльбрус на Кавказе, 5642 м; Юдычвумчорр на Кольском полуострове, 1206 м; гора Народная на Урале, 1895 м; Ключевская сопка на Камчатке, 4835 м; и гора Белуха на Алтае, 4509 м. Они во все времена вызывали восхищение и трепет. Места силы и притяжения. Пугающие и неприступные. Манящие и овеянные легендами. Люди стремились их покорить, но всегда сами были покорены горами… «Моя Планета» представляет удивительный рассказ о параллельном вертикальном мире с его экологией, природой, героями и судьбой в миллионы лет.
Пять вершин России. Ключевская сопка
Пять вершин России. Эльбрус
Пять вершин России. Ючвычморр
Пять вершин России. Народная
Тип релиза: HDTV 1080i
Контейнер: TS
Видео: H264; 1920x1080 (16:9); 25.000 fps; ~7 552 Kbps
Аудио: MPEG Audio 48000Hz stereo 192 Кбит/сек

MediaInfo

GeneralID : 1 (0x1)Complete name : F:\Россия HD\Пять вершин России\Пять вершин России. Ючвычморр.tsFormat : MPEG-TSFile size : 1.42 GiBDuration : 24mn 58sOverall bit rate mode : VariableOverall bit rate : 8 148 Kbps
VideoID : 2292 (0x8F4)Menu ID : 1 (0x1)Format : AVCFormat/Info : Advanced Video CodecFormat profile : High@L4.0Format settings, CABAC : YesFormat settings, ReFrames : 4 framesCodec ID : 27Duration : 24mn 58sBit rate : 7 552 KbpsWidth : 1 920 pixelsHeight : 1 080 pixelsDisplay aspect ratio : 16:9Frame rate : 25.000 fpsColor space : YUVChroma subsampling : 4:2:0Bit depth : 8 bitsScan type : MBAFFBits/(Pixel*Frame) : 0.146Stream size : 1.32 GiB (93%)
AudioID : 2295 (0x8F7)Menu ID : 1 (0x1)Format : MPEG AudioFormat version : Version 1Format profile : Layer 2Codec ID : 3Duration : 24mn 58sBit rate mode : ConstantBit rate : 192 KbpsChannel(s) : 2 channelsSampling rate : 48.0 KHzCompression mode : LossyStream size : 34.3 MiB (2%)Language : English

Скриншоты

[Профиль] [ЛС]
Кто просматривает тему:

Показать сообщения:    

Текущее время: Сегодня 00:50

Часовой пояс: GMT



Вы не можете начинать темы
Вы не можете отвечать на сообщения
Вы не можете редактировать свои сообщения
Вы не можете удалять свои сообщения
Вы не можете голосовать в опросах
Вы не можете прикреплять файлы к сообщениям
Вы не можете скачивать файлы