Пятьдесят оттенков черного / Fifty Shades of Black (2016) BDRemux | iTunes

 
Автор Сообщение

BOSS ®

Пол:

Стаж: 2 года 1 месяц

Сообщений: 3746

Откуда: ODESSA



Награды: 20 (Подробнее)

Mega Releaser 2 (Количество: 1) Top Seeder 2 (Количество: 1) Top Keeper 4 (Количество: 1)
Торрент-статистика

Создавать темы 15-Апр-2016 17:02

[Цитировать]

Производство: США / IM Global
Жанр: комедия
Режиссер: Майкл Тиддес
Продюсер: Рик Альварес, Марлон Уайанс, Пэдди Каллен
Актеры: Марлон Уайанс, Кали Хоук, Фред Уиллард, Майк Эппс, Эффион Крокетт, Джейн Сеймур, Флоренс Хендерсон, Эндрю Бэчелор, Дженни Зигрино, Кейт Лэнг Джонсон, Сидни Кастилло, Ирен Чои, Расселл Питерс, Д.С. Эрвин, Шонте Вайанс, Винсент Ошана, Ховард Алонсо, Брэд Шмидт, Джои Ромэйн, Дейв Шеридан
Описание:
Неискушенная студентка колледжа знакомится с состоятельным бизнесменом, чьи сексуальные предпочтения омрачают их отношения.

Возраст: 18+ (зрителям, достигшим 18 лет. запрещено для детей)
Рейтинг MPAA: R (лицам до 17 лет обязательно присутствие взрослого)
Дата мировой премьеры: 28 января 2016
Дата российской премьеры: 4 февраля 2016, «Парадиз»
Продолжительность: 01:31:58
Качество: BDRemux
Перевод: Дублированный (iTunes)
Субтитры: Отсутствуют
Видео: AVC/H.264, 1920x1080p, (16:9), 31453 kbps, 23.976 fps
Аудио: AC3, 6 ch, 384 kbps - Русский
Аудио: DTS, 6 ch, 1509 kbps - Английский
Аудио: DTS-HD MA, 6 ch, 3168 kbps - Английский

MediaInfo:

General
Unique ID : 228343388655769066455458126257946796086 (0xABC956446B69208481100B0EA42EA036)
Complete name : Fifty Shades of Black BDRemux.2016.D.mkv
Format : Matroska
Format version : Version 4 / Version 2
File size : 22.4 GiB
Duration : 1h 31mn
Overall bit rate mode : Variable
Overall bit rate : 34.8 Mbps
Movie name : 5O.oTTeHKoFF.4epHoro.2016.1O8Op.bdr3myx
Encoded date : UTC 2016-04-09 17:37:05
Writing application : mkvmerge v9.0.1 ('Obstacles') 64bit
Writing library : libebml v1.3.3 + libmatroska v1.4.4
DURATION : 01:31:58.518000000
NUMBER_OF_FRAMES : 517361
NUMBER_OF_BYTES : 1040930332
_STATISTICS_WRITING_APP : mkvmerge v9.0.1 ('Obstacles') 64bit
_STATISTICS_WRITING_DATE_UTC : 2016-04-09 17:37:05
_STATISTICS_TAGS : BPS DURATION NUMBER_OF_FRAMES NUMBER_OF_BYTES
Video
ID : 1
Format : AVC
Format/Info : Advanced Video Codec
Format profile : High@L4.1
Format settings, CABAC : Yes
Format settings, ReFrames : 4 frames
Codec ID : V_MPEG4/ISO/AVC
Duration : 1h 31mn
Bit rate mode : Variable
Maximum bit rate : 35.0 Mbps
Width : 1 920 pixels
Height : 1 080 pixels
Display aspect ratio : 16:9
Frame rate mode : Constant
Frame rate : 23.976 fps
Color space : YUV
Chroma subsampling : 4:2:0
Bit depth : 8 bits
Scan type : Progressive
Title : Fifty.Shades.of.Black.2016.1080p.BluRay.REMUX.AVC.DTS-HD.MA.5.1-RARBG
Language : English
Default : No
Forced : No
DURATION : 01:31:58.513000000
NUMBER_OF_FRAMES : 132312
NUMBER_OF_BYTES : 20528835405
_STATISTICS_WRITING_APP : mkvmerge v9.0.1 ('Obstacles') 64bit
_STATISTICS_WRITING_DATE_UTC : 2016-04-09 17:37:05
_STATISTICS_TAGS : BPS DURATION NUMBER_OF_FRAMES NUMBER_OF_BYTES
Audio #1
ID : 2
Format : AC-3
Format/Info : Audio Coding 3
Mode extension : CM (complete main)
Format settings, Endianness : Big
Codec ID : A_AC3
Duration : 1h 31mn
Bit rate mode : Constant
Bit rate : 384 Kbps
Channel(s) : 6 channels
Channel positions : Front: L C R, Side: L R, LFE
Sampling rate : 48.0 KHz
Bit depth : 16 bits
Compression mode : Lossy
Stream size : 253 MiB (1%)
Title : rus
Language : Russian
Default : Yes
Forced : Yes
DURATION : 01:31:58.517000000
NUMBER_OF_FRAMES : 517361
NUMBER_OF_BYTES : 2185550560
_STATISTICS_WRITING_APP : mkvmerge v9.0.1 ('Obstacles') 64bit
_STATISTICS_WRITING_DATE_UTC : 2016-04-09 17:37:05
_STATISTICS_TAGS : BPS DURATION NUMBER_OF_FRAMES NUMBER_OF_BYTES
Audio #2
ID : 3
Format : DTS
Format/Info : Digital Theater Systems
Mode : 16
Format settings, Endianness : Big
Codec ID : A_DTS
Duration : 1h 31mn
Bit rate mode : Constant
Bit rate : 1 509 Kbps
Channel(s) : 6 channels
Channel positions : Front: L C R, Side: L R, LFE
Sampling rate : 48.0 KHz
Bit depth : 24 bits
Compression mode : Lossy
Stream size : 993 MiB (4%)
Language : English
Default : No
Forced : No
Audio #3
ID : 4
Format : DTS
Format/Info : Digital Theater Systems
Format profile : MA / Core
Mode : 16
Format settings, Endianness : Big
Codec ID : A_DTS
Duration : 1h 31mn
Bit rate mode : Variable
Bit rate : Unknown / 1 509 Kbps
Channel(s) : 6 channels
Channel positions : Front: L C R, Side: L R, LFE
Sampling rate : 48.0 KHz
Bit depth : 24 bits
Compression mode : Lossless / Lossy
Title : Fifty.Shades.of.Black.2016.1080p.BluRay.REMUX.AVC.DTS-HD.MA.5.1-RARBG
Language : English
Default : No
Forced : No
Menu
00:00:00.000 : en:00:00:00.000
00:03:55.110 : en:00:03:55.110
00:09:30.695 : en:00:09:30.695
00:14:05.678 : en:00:14:05.678
00:16:32.074 : en:00:16:32.074
00:21:11.270 : en:00:21:11.270
00:24:27.383 : en:00:24:27.383
00:26:50.275 : en:00:26:50.275
00:32:44.713 : en:00:32:44.713
00:37:48.683 : en:00:37:48.683
00:43:08.377 : en:00:43:08.377
00:49:18.914 : en:00:49:18.914
00:52:10.711 : en:00:52:10.711
00:56:28.885 : en:00:56:28.885
00:59:37.491 : en:00:59:37.491
01:04:46.257 : en:01:04:46.257
01:07:50.275 : en:01:07:50.275
01:13:01.043 : en:01:13:01.043
01:20:21.775 : en:01:20:21.775
01:25:30.584 : en:01:25:30.584
Скриншоты:

Время раздачи: 24/7
[Профиль] [ЛС]
Кто просматривает тему:

Форум Тема Автор Размер
Фильмы 2014 года Пятьдесят к одному / 50 to 1 (2014) DVDRip | Лицензия достали все 1.46 GB
Фильмы 2014 года Пятьдесят к одному / 50 to 1 (Джим Уилсон) [2014, Драма] WEB-DLRip | iTunes BOSS 2.05 GB
Фильмы 2014 года Пятьдесят к одному / 50 to 1 (ПМ) (Джим Уилсон) [2014 г., драма, WEB-DLRip] достали все 1.46 GB
Фильмы (HD Rips | 720p, 1080p) Пятьдесят оттенков серого / Fifty Shades of Grey (2015) BDRip 720p | Расширенная версия | Лицензия достали все 5.12 GB
Фильмы 2015 года Пятьдесят оттенков серого / Fifty Shades of Grey (2015) WEB-DLRip | iTunes достали все 744 MB
Фильмы (HD Rips | 720p, 1080p) Пятьдесят оттенков серого / Fifty Shades of Grey (2015) WEBRip 1080p | Звук с CAMRip sergej644 2.59 GB
Фильмы 2015 года Пятьдесят оттенков серого / Fifty Shades of Grey (Сэм Тейлор-Джонсон / Sam Taylor-Johnson) [2015, Драма, мелодрама, BDRip-AVC] [Расширенная версия / Unrated] Dub + Original (Eng) + Subs (Rus., Ukr.,... TorrentFilm 2.18 GB
Фильмы 2015 года Пятьдесят оттенков серого / Fifty Shades of Grey (Сэм Тейлор-Джонсон / Sam Taylor-Johnson) [2015, США, Канада, мелодрама, BDRip] [Theatrical cut] Dub (CEE) TorrentFilm 2.18 GB
Показать сообщения:    

Текущее время: Сегодня 19:29

Часовой пояс: GMT



Вы не можете начинать темы
Вы не можете отвечать на сообщения
Вы не можете редактировать свои сообщения
Вы не можете удалять свои сообщения
Вы не можете голосовать в опросах
Вы не можете прикреплять файлы к сообщениям
Вы не можете скачивать файлы